<?xml version="1.0" standalone="no"?>
<!DOCTYPE svg PUBLIC "-//W3C//DTD SVG 1.1//EN" "http://www.w3.org/Graphics/SVG/1.1/DTD/svg11.dtd">
<svg xmlns="http://www.w3.org/2000/svg">
<metadata>Copyright (C) 2021 by original authors @ fontello.com</metadata>
<defs>
<font id="hotel" horiz-adv-x="1000" >
<font-face font-family="hotel" font-weight="400" font-stretch="normal" units-per-em="1000" ascent="850" descent="-150" />
<missing-glyph horiz-adv-x="1000" />
<glyph glyph-name="005-washing-machine-1" unicode="&#xe800;" d="M984 850h-807c-8 0-16-7-16-16v-599c-5 2-10 2-16 2-44 0-80-36-80-80v-1c-16-12-27-29-31-48h-18c-9 0-16-7-16-16v-65c0-8 7-16 16-16h16v-48c0-62 51-113 113-113h839c9 0 16 7 16 16v968c0 9-7 16-16 16z m-16-32v-161h-774v161z m-879-684c6 3 9 10 9 16l-1 2c0 1 0 3 0 5 0 26 22 48 48 48 17 0 33-9 42-24 2-4 6-7 11-8 4 0 9 1 13 4 6 5 17 12 31 12 17 0 33-10 42-25 3-6 10-9 17-8 17 3 34-9 37-26 1-6 6-11 12-12 6-2 12 0 16 5 10 11 23 17 37 17 21 0 39-13 46-32h-381c4 11 11 20 21 26z m218 152c0 151 123 274 274 274s274-123 274-274-123-275-274-275c-23 0-45 3-67 9 1 2 2 5 2 7v25c21-5 43-8 65-8 133 0 242 108 242 242s-109 241-242 241-242-108-242-241c0-43 11-84 32-120-4-2-7-4-11-6-8 12-20 21-34 26-13 32-19 65-19 100z m97-113c-13 20-22 41-27 64h10c15 0 29 6 39 16l10 10c8 8 23 8 32 0l9-10c21-21 57-21 78 0l10 10c8 8 23 8 32 0l9-10c21-21 57-21 78 0l10 10c8 8 23 8 32 0l9-10c11-10 25-16 39-16h11c-22-92-105-161-204-161-22 0-44 3-65 10v6c0 9-7 16-16 16h-18c-7 37-39 64-78 65z m-33 113c0 115 94 209 210 209s209-94 209-209c0-6 0-11 0-17h-16c-6 0-12 3-16 7l-9 10c-21 20-57 20-78 0l-10-10c-8-9-23-9-32 0l-9 10c-21 20-57 20-78 0l-10-10c-8-9-23-9-32 0l-9 10c-21 20-57 20-78 0l-10-10c-4-4-10-7-16-7h-15c-1 6-1 11-1 17z m-339-210h452v-32h-452z m323-194h-210c-44 0-80 36-80 81v48h387v-48c0-45-37-81-81-81z m95 0c21 21 34 49 34 81v32c31-11 63-16 97-16 169 0 306 138 306 307s-137 306-306 306-307-137-307-306c0-27 4-52 10-77-12 8-27 12-42 12-13 0-26-3-38-10-3 4-7 7-10 10v403h774v-742z m0 0m-176 807c27 0 49 21 49 48s-22 49-49 49-48-22-48-49 22-48 48-48z m0 64c9 0 16-7 16-16s-7-16-16-16-16 7-16 16 7 16 16 16z m0 0m129-64c27 0 49 21 49 48s-22 49-49 49-48-22-48-49 22-48 48-48z m0 64c9 0 16-7 16-16s-7-16-16-16-16 7-16 16 7 16 16 16z m0 0m129-64c27 0 49 21 49 48s-22 49-49 49-48-22-48-49 22-48 48-48z m0 64c9 0 16-7 16-16s-7-16-16-16-16 7-16 16 7 16 16 16z m0 0m371-32h33v-32h-33z m0 0m0 65h33v-33h-33z m0 0m-64-65h32v-32h-32z m0 0m0 65h32v-33h-32z m0 0m-65-65h33v-32h-33z m0 0m0 65h33v-33h-33z m0 0m-64-65h32v-32h-32z m0 0m0 65h32v-33h-32z m0 0" horiz-adv-x="1000" />

<glyph glyph-name="006-couch" unicode="&#xe801;" d="M950 477h-19v73c0 44-36 80-80 80h-286c-27 0-51-14-65-34-14 20-38 34-64 34h-181c-8 0-14-7-14-15 0-8 6-15 14-15h181c27 0 49-22 49-50v-146c0 0 0 0-1 1-17 16-40 25-64 25h-244c-1 20-15 37-33 44-6 2-11 3-17 3h-27v73c0 28 22 50 50 50h48c8 0 14 7 14 15 0 8-6 15-14 15h-48c-44 0-80-36-80-80v-73h-19c-28 0-50-23-50-50v-153c0-57 46-103 103-103h8c0 0-16-43-16-43-11-28 10-57 39-57h24c13 0 26 6 34 16l63 84h490l63-84c8-10 21-16 34-16 0 0 24 0 24 0 29 0 50 29 40 57l-17 43h8c57 0 103 46 103 103v153c0 27-22 50-50 50z m-435 73c0 28 22 50 50 50h286c28 0 50-22 50-50v-73c0 0-27 0-27 0-20 0-38-13-46-31-2-5-3-10-4-16 0 0-244 0-244 0-24 0-48-9-65-26v146z m-339-149h244c36 0 65-29 65-66v-20h-309v86z m-8-296c-2-3-6-5-10-5 0 0-24 0-24 0-9 0-15 9-12 17l20 54h76l-50-66z m698-5h-24c-4 0-8 2-10 5l-50 66h76c0 0 20-53 20-54 3-8-3-17-12-17z m31 100h-794c-40 0-74 33-74 74v153c0 11 9 20 21 20h76c12 0 21-9 21-20v-127c0-8 6-15 14-15h538c8 0 15 7 15 15 0 8-7 15-15 15h-184v20c0 37 29 66 65 66h244v-86h-66c-8 0-15-7-15-15 0-8 7-15 15-15h81c8 0 14 7 14 15v127c0 11 10 20 21 20h76c12 0 21-9 21-20v-153h0c0-41-33-74-74-74z" horiz-adv-x="1000" />

<glyph glyph-name="006-laundry-1" unicode="&#xe802;" d="M266-33c8 0 15 7 15 15v380c0 6-3 11-8 13-5 3-11 3-15 0l-83-54-64 85c-4 7-14 8-20 3-6-5-8-14-3-20l65-86c9-12 25-15 38-7l60 39v-353c0-8 7-15 15-15z m466 92c-8 0-14-7-14-15v-164h-437v39c0 8-7 15-15 15s-15-7-15-15v-54c0-8 7-15 15-15h466c8 0 15 7 15 15v179c0 8-7 15-15 15z m232 449l-95 72c-6 5-15 4-20-3-5-6-4-15 3-20l94-72-123-164-83 54c-4 3-10 3-15 0-4-2-7-7-7-13v-102c0-8 6-15 14-15s15 7 15 15v75l60-39c13-8 30-5 38 7l125 165c9 13 7 30-6 40z m34 334c-3 7-12 10-19 6-65-34-134-61-205-80-6 6-13 9-22 9h-37c-16 0-30-13-30-30-123-22-247-22-370 0 0 17-14 30-30 30h-37c-9 0-16-3-22-9-71 19-139 46-205 80-7 4-16 1-19-6-4-7-1-16 6-20 67-35 137-62 210-82v-77c0-5 1-9 3-13l-187-142c-13-10-15-27-6-40l23-29c2-4 7-6 11-6 3 0 6 1 9 3 7 5 8 14 3 20l-22 29 195 148c0 0 1 0 1 0h37c16 0 29 12 30 28h5l44-71c29-47 80-75 135-75s106 28 135 75l44 71h7c1-16 15-28 30-28h37l50-39c3-2 6-3 9-3 4 0 9 2 12 6 4 7 3 16-3 21l-41 31c2 4 3 9 3 14v77c73 20 143 47 210 82 7 4 10 13 6 20z m-712-179c0 0-1-1-1-1h-37c0 0 0 0 0 0 0 0 0 0 0 0-1 0-1 1-1 1v84c0 1 1 1 1 1h37c0 0 1-1 1-1v-84z m323-58c-24-38-65-61-110-61s-86 23-110 61l-14 23c41-11 82-17 124-17s83 6 124 17z m68 85c-10 0-19-5-24-14l-6-10c-96-34-200-34-296 0l-6 10c-5 9-14 14-24 14h-6v28c61-11 123-17 185-17s124 6 185 17v-28z m37-27v84c0 1 1 1 1 1h37c1 0 1-1 1-1v-84c0 0 0-1-1-1h-37c0 0-1 1-1 1z m68-490c-12 7-21 17-28 30-5 8-13 13-23 13 0 0 0 0 0 0-9 0-18-5-22-14-6-11-16-21-29-28-9-5-14-14-13-23 0-10 6-18 15-22 12-6 21-14 26-27 5-8 13-14 23-14 0 0 0 0 0 0 10 0 18 5 23 14 6 12 15 21 27 26 8 4 14 13 14 22 1 10-4 18-13 23z m-50-52c-8 14-18 24-32 31 13 8 24 19 31 31 8-13 19-24 31-32-12-7-23-17-30-30z m36 34c0 0 0 0 0 0 0 0 0 0 0 0z m164-100c-11 7-19 15-25 26-4 8-12 13-21 13 0 0 0 0 0 0-9 0-17-5-22-13-5-10-13-18-25-25-8-4-13-13-12-22 0-9 6-17 14-21 11-5 18-12 23-23 4-8 12-13 21-14 1 0 1 0 1 0 9 0 17 5 22 13 5 11 13 19 23 24 8 3 13 11 14 20 0 10-5 18-13 22z m-46-44c-6 10-14 18-25 24 11 7 19 15 25 25 7-10 15-19 24-25-9-6-17-14-24-24z m-704 123c-14 8-25 18-32 33-5 8-14 14-24 14-10 0-19-6-23-15-7-13-17-23-32-31-9-5-14-14-14-24 0-11 6-19 16-23 13-6 23-16 30-30 4-9 13-15 23-15 0 0 0 0 0 0 10 0 19 5 24 14 7 14 17 24 30 30 9 4 15 13 15 23 0 10-5 19-13 24z m-55-58c-9 16-21 28-37 36 15 10 28 22 36 36 10-15 22-28 37-37-15-8-27-20-36-35z" horiz-adv-x="1000" />

<glyph glyph-name="007-bed" unicode="&#xe803;" d="M903 426v1 162c0 72-52 99-100 99h-609c-48 0-100-26-100-99v-162-1c-48-5-94-37-94-111v-126c0-22 17-39 39-39h12v-99c0-22 17-39 39-39h36c22 0 39 17 39 39v100h670v-100c0-22 17-39 39-39h36c22 0 39 17 39 39v100h13c21 0 38 17 38 39v125c-3 74-49 106-97 111z m-772 163h2c0 50 33 61 61 61h609c28 0 61-11 61-61v-162h-29v92c0 21-17 39-38 39h-235c-22 0-39-18-39-39v-92h-45v92c0 21-17 39-38 39h-236c-21 0-38-18-38-39v-92h-35v162z m666-70v-92h-235v92h235z m-355 0v-92h-236v92h236z m-317-468h-36v100h36v-100z m783 0h-36v100h36v-100z m50 138h-50-36-747-36-52v56h921v-56z m0 95h-921v31c0 64 48 74 74 74h21 73 236 121 235 67 21c27 0 73-10 73-74v-31z" horiz-adv-x="1000" />

<glyph glyph-name="007-dryer" unicode="&#xe804;" d="M996 497l-103 166c-4 6-11 10-18 10h-187c0 0 0 0-1 0h-374c0 0-1 0-1 0h-187c-7 0-14-4-18-10l-104-166c-4-7-4-15 0-22 3-6 10-10 18-10h202l242-175-311-225c-9-7-11-20-4-29 4-6 10-9 17-9 4 0 8 1 12 4l321 233 321-233c4-3 8-4 12-4 7 0 13 3 17 9 7 9 5 22-4 29l-310 225 241 175h202c0 0 0 0 0 0 12 0 21 9 21 20 0 5-1 9-4 12z m-750 9h-188l79 125h147l-38-125z m82 125h151v-125h-190l39 125z m172-316l-206 150h412l-206-150z m21 191v125h151l39-125h-190z m233 0l-38 125h147l79-125h-188z" horiz-adv-x="1000" />

<glyph glyph-name="008-bed-1" unicode="&#xe805;" d="M969 178h-16v125a63 63 0 0 1-62 63v265a63 63 0 0 1-63 63h-656a63 63 0 0 1-63-63v-265a63 63 0 0 1-62-63v-125h-16a16 16 0 0 1-15-15v-63a16 16 0 0 1 15-16h16v-62a16 16 0 0 1 16-16h46a16 16 0 0 1 16 13l13 65h724l13-65a16 16 0 0 1 16-13h47a16 16 0 0 1 15 16v62h16a16 16 0 0 1 15 16v63a16 16 0 0 1-15 15z m-828 453a31 31 0 0 0 31 32h656a31 31 0 0 0 31-32v-265h-31v62a63 63 0 0 1-62 63h-188a63 63 0 0 1-62-63v-62h-32v62a63 63 0 0 1-62 63h-188a63 63 0 0 1-62-63v-62h-31z m656-203v-62h-250v62a31 31 0 0 0 31 31h188a31 31 0 0 0 31-31z m-344 0v-62h-250v62a31 31 0 0 0 31 31h188a31 31 0 0 0 31-31z m-375-125a31 31 0 0 0 31 31h782a31 31 0 0 0 31-31v-125h-844z m19-265h-19v46h28z m825 0h-19l-9 46h28z m31 78h-906v31h906z" horiz-adv-x="1000" />

<glyph glyph-name="008-dryer-1" unicode="&#xe806;" d="M996 634c-10 24-37 34-60 24l-211-90h-450l-211 90c-23 10-50 0-60-24-5-11-5-23-1-35 5-11 14-20 25-25l219-94c6-2 12-4 18-4 0 0 0 0 0 0h26l188-174-209-193c-11-11-18-26-19-42h-1c-9 0-15-6-15-14 0-8 6-15 15-15h31c8 0 15 7 15 15 0 8-7 14-15 14h-1c1 8 5 15 10 20l210 195 210-195c6-5 9-12 10-20h-1c-8 0-14-6-14-14 0-8 6-15 14-15h32c8 0 14 7 14 15 0 8-6 14-14 14h-2c-1 16-8 31-19 42l-208 193 187 174h26c0 0 0 0 0 0 6 0 12 2 18 4l219 94c11 5 20 14 25 25 4 12 4 24-1 35z m-777-110l-180 77c-4 2-7 5-8 9-2 4-2 9 0 13 3 8 13 12 22 9l179-78c-7-8-12-18-13-30z m516-18h-94c-8 0-15-7-15-15s7-15 15-15h25l-166-154-166 154h244c8 0 15 7 15 15s-7 15-15 15h-313c-9 0-16 7-16 16 0 9 7 17 16 17h470c9 0 17-8 17-17 0-9-8-16-17-16z m235 104c-2-4-5-7-9-9l-180-77c-1 12-6 22-13 30l180 78c8 3 18-1 21-9 2-4 2-9 1-13z" horiz-adv-x="1000" />

<glyph glyph-name="009-single-bed" unicode="&#xe808;" d="M886 401v278c0 57-46 103-102 103h-568c-56 0-102-46-102-103v-278c-65-15-114-74-114-144v-207c0-17 13-30 30-30h84v-72c0-17 13-30 30-30 16 0 29 13 29 30v72h654v-72c0-17 13-30 30-30 16 0 29 13 29 30v72h84c17 0 30 13 30 30v207c0 70-49 129-114 144z m-713 278c0 24 20 43 43 43h568c23 0 43-19 43-43v-273h-99v47c0 77-63 141-141 141h-174c-78 0-141-64-141-141v-47h-99v273z m496-226v-47h-338v47c0 45 37 81 82 81h174c45 0 82-36 82-81z m-609-373v177c0 49 39 89 88 89h704c49 0 88-40 88-89v-177h-880z" horiz-adv-x="1000" />

<glyph glyph-name="010-bed-2" unicode="&#xe809;" d="M907 396v223c0 49-40 89-89 89h-636c-49 0-89-40-89-89v-223c-54-15-93-64-93-122v-169c0-16 13-30 30-30h63v-53c0-16 13-30 30-30 16 0 29 14 29 30v53h696v-53c0-16 13-30 30-30 16 0 29 14 29 30v53h63c17 0 30 14 30 30v169c0 58-39 107-93 122z m-755 223c0 16 14 29 30 29h636c17 0 30-13 30-29v-218h-70v59c0 52-42 94-94 94h-120c-25 0-47-9-64-25-17 16-39 25-64 25h-120c-52 0-94-42-94-94v-59h-70v218z m567-159v-59h-189v59c0 19 15 35 34 35h120c19 0 35-16 35-35z m-249 0v-59h-189v59c0 19 16 35 35 35h120c19 0 34-16 34-35z m471-325h-882v139c0 37 31 67 68 67h747c37 0 67-30 67-67v-139z" horiz-adv-x="1000" />

<glyph glyph-name="011-bed-3" unicode="&#xe80b;" d="M469 366h-47v117a55 55 0 0 1-55 55h-234a55 55 0 0 1-55-55v-117h-47a16 16 0 0 1-15-16v-94a16 16 0 0 1 15-15v-32a16 16 0 0 1 16-15h16v-31a16 16 0 0 1 15-16h47a16 16 0 0 1 15 11l12 36h194l12-36a16 16 0 0 1 15-11h47a16 16 0 0 1 16 16v31h17a16 16 0 0 1 16 15v32a16 16 0 0 1 15 15v94a16 16 0 0 1-15 16z m-360 117a24 24 0 0 0 24 23h234a24 24 0 0 0 24-23v-117h-32v39a55 55 0 0 1-54 54h-110a55 55 0 0 1-54-54v-39h-32z m219-78v-39h-156v39a24 24 0 0 0 23 23h110a24 24 0 0 0 23-23z m-214-227h-20v16h25z m290 0h-20l-5 16h25z m34 47h-375v16h375z m15 47h-406v62h406z m516 94h-47v117a55 55 0 0 1-55 55h-234a55 55 0 0 1-55-55v-117h-47a16 16 0 0 1-15-16v-94a16 16 0 0 1 15-15v-32a16 16 0 0 1 16-15h16v-31a16 16 0 0 1 15-16h47a16 16 0 0 1 15 11l12 36h194l12-36a16 16 0 0 1 15-11h47a16 16 0 0 1 16 16v31h17a16 16 0 0 1 16 15v32a16 16 0 0 1 15 15v94a16 16 0 0 1-15 16z m-360 117a24 24 0 0 0 24 23h234a24 24 0 0 0 24-23v-117h-32v39a55 55 0 0 1-54 54h-110a55 55 0 0 1-54-54v-39h-32z m219-78v-39h-156v39a24 24 0 0 0 23 23h110a24 24 0 0 0 23-23z m-214-227h-20v16h25z m290 0h-20l-5 16h25z m34 47h-375v16h375z m15 47h-406v62h406z" horiz-adv-x="1000" />

<glyph glyph-name="011-user" unicode="&#xe80c;" d="M854 204c-55 54-120 94-190 119 75 52 125 139 125 238 0 159-130 289-289 289s-289-130-289-289c0-99 50-186 125-238-70-25-135-65-190-119-94-95-146-220-146-354h78c0 233 189 422 422 422s422-189 422-422h78c0 134-52 259-146 354z m-354 146c-116 0-211 95-211 211s95 211 211 211c116 0 211-95 211-211s-95-211-211-211z" horiz-adv-x="1000" />

<glyph glyph-name="012-user" unicode="&#xe80d;" d="M854 204c-55 54-120 94-190 119 75 52 125 139 125 238 0 159-130 289-289 289s-289-130-289-289c0-99 50-186 125-238-70-25-135-65-190-119-94-95-146-220-146-354h78c0 233 189 422 422 422s422-189 422-422h78c0 134-52 259-146 354z m-354 146c-116 0-211 95-211 211s95 211 211 211c116 0 211-95 211-211s-95-211-211-211z" horiz-adv-x="1000" />

<glyph glyph-name="012-user-1" unicode="&#xe80e;" d="M411 368c66 0 123 24 170 71 47 47 71 104 71 170 0 66-24 124-71 171-47 46-104 70-170 70-66 0-124-24-170-71s-71-104-71-170c0-66 24-123 71-170 46-47 104-71 170-71z m-129 370c36 36 78 53 129 53 51 0 93-17 129-53 36-36 53-78 53-129 0-51-17-93-53-129-36-36-78-53-129-53-51 0-93 17-129 53-36 36-53 78-53 129 0 51 17 93 53 129z m0 0m550-657c-1 20-4 41-8 63-4 23-9 44-15 64-7 20-16 40-26 59-12 20-25 37-40 51-15 15-34 27-56 36-22 9-47 13-73 13-10 0-20-4-39-17-11-7-25-16-41-26-13-8-30-16-52-23-22-7-43-11-65-11-21 0-43 4-64 11-22 7-40 15-53 23-15 10-29 19-41 26-19 13-29 17-39 17-26 0-50-4-72-13-22-9-41-21-57-36-15-14-28-31-39-51-11-19-20-39-26-59-7-20-12-41-16-64-4-22-7-43-8-63-1-19-2-39-2-59 0-52 17-95 49-126 33-30 75-46 127-46h482c52 0 95 16 127 46 33 31 49 74 49 126 0 20 0 40-2 59z m-87-142c-22-21-50-30-87-30h-482c-37 0-65 9-86 30-21 20-31 47-31 83 0 19 0 37 2 55 1 17 3 37 7 57 3 20 8 39 13 56 6 16 13 33 22 48 8 15 18 28 29 38 10 10 22 18 37 23 14 6 30 9 46 9 3-1 6-3 12-7 12-8 26-16 41-26 18-11 40-21 67-30 27-9 55-13 82-13 28 0 56 4 83 13 26 9 49 19 66 30 16 10 29 18 41 26 6 4 10 6 12 7 17 0 32-3 46-9 15-5 28-13 38-23 10-10 20-23 29-38 8-15 16-32 21-48 5-17 10-36 14-56 3-20 6-40 7-57v0c1-18 2-36 2-55 0-36-10-63-31-83z m0 0" horiz-adv-x="1000" />

<glyph glyph-name="013-user-1" unicode="&#xe80f;" d="M500 850c-145 0-264-118-264-264s119-263 264-263 264 118 264 263-119 264-264 264z m328-700c-72 74-168 114-269 114h-118c-101 0-197-40-269-114-72-72-111-169-111-271 0-16 13-29 29-29h820c16 0 30 13 30 29 0 102-40 199-112 271z" horiz-adv-x="1000" />

<glyph glyph-name="014-stairs" unicode="&#xe811;" d="M997 291l-57 46c0 1-1 1-1 1l-326 269c0 0-1 0-1 0l-289 239c-3 2-6 3-10 3h-117c-8 0-15-6-15-15s7-14 15-14h51v-183h-16c-8 0-15-6-15-14 0-9 7-15 15-15h58v-37h-168v37h51c8 0 15 6 15 15 0 8-7 14-15 14h-147c-14 0-25-11-25-25v-584c0-14 11-25 25-25h388c8 0 14 7 14 15 0 8-6 15-14 15h-384v575h63v-51c0-9 7-15 15-15h149v-120c0-8 6-15 14-15h149v-120c0-8 7-14 15-14h149v-120c0-9 6-15 14-15h149v-105h-275c-8 0-14-7-14-15 0-8 6-15 14-15h290 0 191c11 0 20 9 20 20v56c0 11-9 20-20 20h-7v196l33-27c3-2 6-3 9-3 5 0 9 1 12 5 5 6 4 15-2 21z m-712 146v36h167v-36z m177-30c11 0 20 9 20 20v56c0 11-9 20-20 20h-177v39h13c11 0 20 9 20 20v56c0 10-9 19-20 19h-21v183h31l280-231v-221h-140v39z m-14-105v37h168v-37z m164-135v37h167v-37z m331-134h-168v36h168z m-27 66h-141v39h14c11 0 20 9 20 20v56c0 10-9 19-20 19h-177v40h13c11 0 20 8 20 19v56c0 11-9 20-20 20h-7v197l298-246z m0 0" horiz-adv-x="1000" />

<glyph glyph-name="014-user-2" unicode="&#xe812;" d="M411 368c66 0 123 24 170 71 47 47 71 104 71 170 0 66-24 124-71 171-47 46-104 70-170 70-66 0-124-24-170-71s-71-104-71-170c0-66 24-123 71-170 46-47 104-71 170-71z m0 0m421-287c-1 20-4 41-8 63-4 23-9 44-15 64-7 20-16 40-26 59-12 20-25 37-40 51-15 15-34 27-56 36-22 9-47 13-73 13-10 0-20-4-39-17-11-7-25-16-41-26-13-8-30-16-52-23-22-7-43-11-65-11-21 0-43 4-64 11-22 7-40 15-53 23-15 10-29 19-41 26-19 13-29 17-39 17-26 0-50-4-72-13-22-9-41-21-57-36-15-14-28-31-39-51-11-19-20-39-26-59-7-20-12-41-16-64-4-22-7-43-8-63-1-19-2-39-2-59 0-52 17-95 49-126 33-30 75-46 127-46h482c52 0 95 16 127 46 33 31 49 74 49 126 0 20 0 40-2 59z m0 0" horiz-adv-x="1000" />

<glyph glyph-name="015-avatar" unicode="&#xe813;" d="M651 386c64 47 105 123 105 208 0 141-115 256-256 256s-256-115-256-256c0-85 41-161 105-208-159-61-272-215-272-395 0-78 63-141 141-141h564c78 0 141 63 141 141 0 180-113 334-272 395z m-330 208c0 99 80 179 179 179s180-80 180-179-81-180-180-180-179 81-179 180z m461-667h-564c-35 0-64 29-64 64 0 191 155 346 346 346s346-155 346-346c0-35-29-64-64-64z" horiz-adv-x="1000" />

<glyph glyph-name="015-stairs-1" unicode="&#xe814;" d="M979 17h-854v83h146c11 0 21 9 21 21v104h146c11 0 20 9 20 21v104h146c12 0 21 9 21 21v104h146c11 0 21 9 21 21v104h146c11 0 20 9 20 21 0 11-9 21-20 21h-167c-12 0-21-10-21-21v-104h-146c-11 0-21-10-21-21v-104h-145c-12 0-21-10-21-21v-104h-146c-12 0-21-10-21-21v-104h-146c-11 0-21-10-21-21v-104h-62c-12 0-21-10-21-21 0-12 9-21 21-21h958c12 0 21 9 21 21 0 11-9 21-21 21z m-833 375c5 0 10 1 14 5l275 241-17-52c-4-11 2-23 13-26 2-1 4-2 7-2 8 0 16 6 19 15l42 125c2 7 1 14-4 20-5 5-12 8-19 7l-125-21c-12-2-19-13-17-24s13-19 24-17l52 9-278-244c-8-7-9-20-2-29 4-5 10-7 16-7z" horiz-adv-x="1000" />

<glyph glyph-name="016-man-user" unicode="&#xe815;" d="M500 361c111 0 201 109 201 245 0 135-29 244-201 244s-201-109-201-244c0-136 90-245 201-245z m-380-373c0 8 0 2 0 0l0 0z m760-7c0 2 0 16 0 0l0 0z m0 16c-4 236-35 303-270 345 0 0-33-42-110-42s-110 42-110 42c-233-42-265-108-270-337 0-19 0-20 0-17 0-5 0-12 0-25 0 0 56-113 380-113 324 0 380 113 380 113 0 8 0 14 0 18 0-1 0 1 0 16z" horiz-adv-x="1000" />

<glyph glyph-name="016-stairs-2" unicode="&#xe816;" d="M881 297h-148c-22 0-40-17-40-39 0-21 18-39 40-39h54l-188-187c-15-15-15-40 0-55 16-16 40-16 56 0l187 187v-54c0-22 17-39 39-39 22 0 39 17 39 39v148c0 0 0 0 0 0 0 22-17 39-39 39z m80 438h-230c-22 0-40-18-40-39v-192h-191c-22 0-39-17-39-39v-191h-191c-22 0-39-18-39-39v-192h-192c-21 0-39-17-39-39 0-21 18-39 39-39h231c10 0 20 4 27 12 8 7 12 17 12 27l0 192h191c10 0 20 4 28 11 7 8 11 17 11 28l0 191h192c10 0 20 4 27 12 7 7 12 17 12 27l0 192h191c22 0 39 17 39 39s-17 39-39 39z" horiz-adv-x="1000" />

<glyph glyph-name="017-people" unicode="&#xe817;" d="M109 69h782a16 16 0 0 1 15 15v145a153 153 0 0 1-132 151 141 141 0 1 1-173 0 152 152 0 0 1-101-59 152 152 0 0 1-101 59 141 141 0 1 1-173 0 153 153 0 0 1-132-151v-145a16 16 0 0 1 15-15z m469 422a109 109 0 1 0 110-110 110 110 0 0 0-110 110z m43-141h133a121 121 0 0 0 121-121v-129h-62v141a16 16 0 0 1-32 0v-141h-187v141a16 16 0 0 1-31 0v-141h-32v129a151 151 0 0 1-13 63 121 121 0 0 0 103 58z m-418 141a109 109 0 1 0 110-110 110 110 0 0 0-110 110z m-78-262a121 121 0 0 0 121 121h133a121 121 0 0 0 121-121v-129h-62v141a16 16 0 0 1-32 0v-141h-187v141a16 16 0 0 1-31 0v-141h-63z" horiz-adv-x="1000" />

<glyph glyph-name="018-double" unicode="&#xe819;" d="M883 549c0 21-18 39-40 39h-293a40 40 0 0 1-28-12 41 41 0 0 1-12-29l0-191 324 0v11a73 73 0 0 0 49 68z m-791-133c-27 0-50-22-50-49v-255h100v230a12 12 0 0 0 0 5v20c0 27-22 49-50 49z m74-60l321 0 0 193c0 21-18 39-40 39h-294c-23 0-41-18-41-39v-113a73 73 0 0 0 54-69z m742 60c-28 0-50-22-50-49v-255h100v255c0 27-22 49-50 49z m-410-83h0 0l0 0-332 0v-129l668 0v129l-336 0z" horiz-adv-x="1000" />

<glyph glyph-name="018-man-1" unicode="&#xe81a;" d="M500 616c64 0 117 52 117 117 0 64-53 117-117 117-65 0-117-53-117-117 0-65 52-117 117-117z m0 177c33 0 60-27 60-60 0-33-27-60-60-60-33 0-60 27-60 60 0 33 27 60 60 60z m45-206h-90c-63 0-114-51-114-114v-193c0-36 17-70 45-91v-310c0-16 13-29 29-29 16 0 29 13 29 29v325c0 11-6 21-16 26-18 10-30 29-30 50v193c0 31 26 57 57 57h90c31 0 57-26 57-57v-193c0-21-12-40-30-50-9-5-16-15-16-26v-325c0-16 13-29 29-29 16 0 29 13 29 29v310c28 21 45 55 45 91v193c0 63-51 114-114 114z" horiz-adv-x="1000" />

<glyph glyph-name="019-family" unicode="&#xe81b;" d="M500 575c90 55 154 113 152 175 0 55-44 100-99 100-19 0-37-5-53-15-16 10-34 15-53 15-55 0-99-45-99-100-1-58 53-115 152-175z m-53 216c24 1 39-24 53-39 12 14 31 42 53 39 22 0 41-18 41-41 0-20-17-54-94-105-77 51-94 85-94 105 0 23 19 41 41 41z m395-522c42 32 70 83 70 140 0 97-79 176-177 176s-176-79-176-176c0-57 27-108 70-140-11-5-21-10-30-16-26 24-61 38-99 38-20 0-39-4-56-11-21 19-46 36-73 47 43 33 70 84 70 141 0 97-79 176-176 176s-177-79-177-176c0-57 28-108 70-141-93-41-158-134-158-242v-235h1000v176c0 108-65 201-158 243z m-224 140c0 65 52 118 117 118s118-53 118-118-53-118-118-118-117 53-117 118z m-30-265c0-49-39-88-88-88s-88 39-88 88 39 88 88 88 88-39 88-88z m-441 324c0 65 53 118 118 118s117-53 117-118-52-118-117-118-118 53-118 118z m179-559h-267v176c0 114 92 206 206 206 49 0 94-17 129-45-25-27-41-63-41-102 0-46 22-87 55-114-43-26-73-70-82-121z m60 0c13 50 59 88 114 88s101-38 114-88z m555 0h-267c-9 51-39 95-82 121 34 27 55 68 55 114 0 22-5 43-13 61 30 18 64 27 101 27 114 0 206-92 206-206z" horiz-adv-x="1000" />

<glyph glyph-name="019-restaurant" unicode="&#xe81c;" d="M974 0l-392 392-458 458h-36l-7-19c-20-49-28-99-24-145 4-52 24-97 57-130l358-358 47 47 331-370c33-33 89-34 124 0 34 35 34 90 0 125z m-668 281l-280-280c-34-35-34-90 0-125 33-32 89-35 124 0l281 280-125 125z m652 403l-159-159-42 41 159 159-41 41-159-158-42 41 159 159-41 41-207-207c-26-25-41-59-43-95-1-9-3-18-6-26l135-135c8 4 17 6 26 6 36 2 69 17 95 43l207 207-41 42z" horiz-adv-x="1000" />

<glyph glyph-name="020-family-1" unicode="&#xe81d;" d="M197 550c-8 0-15-7-15-15v-36c0-8 7-15 15-15s15 7 15 15v36c0 8-7 15-15 15z m157 0c-8 0-14-7-14-15v-36c0-8 6-15 14-15s15 7 15 15v36c0 8-6 15-15 15z m307 0c-8 0-14-7-14-15v-36c0-8 6-15 14-15s15 7 15 15v36c0 8-7 15-15 15z m158-66c8 0 15 7 15 15v36c0 8-7 15-15 15s-15-7-15-15v-36c0-8 7-15 15-15z m-614-415c-8 0-15-6-15-15v-32c0-8 7-15 15-15s15 7 15 15v32c0 9-7 15-15 15z m141 0c-8 0-14-6-14-15v-32c0-8 6-15 14-15s15 7 15 15v32c0 9-6 15-15 15z m326 8c-9 0-15-6-15-14v-32c0-8 6-15 15-15s14 7 14 15v32c0 8-6 14-14 14z m137 0c-9 0-15-6-15-14v-32c0-8 6-15 15-15s14 7 14 15v32c0 8-6 14-14 14z m189 400c-1 8-8 15-16 14-8 0-14-7-14-15 2-33 3-68 2-108 0 0 0-1 0-1 0-2 0-54-73-87-23 24-52 39-79 47 59 29 99 89 99 159v99c1 8-7 15-16 14-1 0-164-12-228 72-7 10-22 7-26-4 0-1-21-64-75-84-6-3-9-8-9-14v-83c0-70 40-130 99-159-27-8-56-23-79-47-73 33-73 85-73 87 0 0 0 1 0 1-2 213 26 337 90 401 34 35 80 52 140 52 71 0 123-24 159-74 34-46 55-116 65-213 1-8 8-14 16-13 8 0 14 8 13 16-10 102-33 177-70 228-42 57-102 85-183 85-68 0-121-20-161-60-25-25-45-57-60-98-4 13-10 24-17 35-33 48-87 60-109 63-10 19-44 60-129 60-37 0-68-4-95-8-8-2-13-9-12-17 1-8 9-14 17-12 25 4 55 8 90 8 85 0 105-48 106-50 2-5 7-9 13-9 1 0 63-4 95-52 25-36 27-89 6-158-9 7-19 11-31 13v28c0 6-3 11-8 13-48 24-62 72-62 73-2 8-12 13-19 10-85-30-146-26-182-18-39 9-59 25-59 25-9 8-25 1-25-11v-120c-8-1-16-4-23-8-25 32-40 85-44 154-3 39-1 74 1 93 33-4 61-2 83 0 8 1 14 8 13 16s-8 14-17 13c-22-2-53-4-89 3-8 1-17-5-18-13-1-8-24-194 48-285-8-12-13-26-13-41 0-38 30-69 68-69 1 0 1 0 1 0 15-44 48-80 90-101-32-10-64-28-89-59-5-6-4-15 2-21 6-5 16-4 21 3 40 49 100 59 144 59 35 0 84-7 124-39 35-30 56-75 62-135h-88-21v31c0 42-35 77-77 77s-77-35-77-77v-31h-21-88c2 25 7 48 15 68 3 7-1 16-9 18-7 3-16 0-19-8-10-27-16-58-18-92 0-6 3-12 9-14-1-19-1-38 0-59-4-8-7-18-7-28 0-35 28-63 63-63 22-62 82-107 152-107s129 45 151 107c35 0 63 28 63 63 0 10-2 20-7 28 1 21 2 40 1 59 5 2 9 8 8 14-4 76-28 134-73 171-19 16-41 27-65 35 41 21 74 57 89 101 1 0 1 0 1 0 13 0 26 4 37 11-1-23-1-47-1-72 0 0 0 0 0 0 0-8 3-70 83-110-33-49-42-117-25-202-7-14-8-33-2-48-18-16-47-57-31-145 2-9 11-14 19-11 1 0 27 8 51 29 18 14 30 31 37 50 29-40 75-66 128-66s99 26 128 66c7-19 19-36 37-50 24-21 50-29 51-29 8-3 18 2 19 11 17 88-13 129-31 145 6 15 6 34-2 48 17 85 8 153-25 202 79 39 83 100 83 110 0 0 0 0 0 0 0 41 0 77-2 110z m-543-401c-9 5-18 7-28 7-1 0-2 0-2 0-4 2-12 8-23 22h52c1-9 1-19 1-29z m-179 137c19 0 36-12 43-29h-87c7 17 24 29 44 29z m-48-58h95v-20h-95z m-101-72c-1 0-2 0-2 0-10 0-20-2-28-7 0 10 0 20 0 29h53c-11-14-20-20-23-22z m-36-63c0 15 10 28 24 32v-42c0-8 1-16 2-23-15 4-26 17-26 33z m316-10c0-72-59-131-131-131-73 0-131 59-131 131v49c10 7 25 21 41 46h179c18-26 33-39 42-46z m28-23c1 7 1 15 1 23v42c14-4 25-17 25-32 0-16-11-29-26-33z m-367 510c0 18 13 34 30 38 1-19-1-59 2-77-18 3-32 19-32 39z m356-11c0-82-67-147-148-147s-148 65-148 147v173c36-18 113-40 232-2 8-19 26-52 64-73z m27-28c3 18 2 58 2 77 17-4 30-20 30-38 0-20-14-36-32-39z m141 28v73c39 19 62 54 74 76 65-63 180-67 222-66v-83c0-82-66-147-148-147s-148 65-148 147z m-7-488c-13 4-24 16-24 31 0 15 10 27 23 31v-41c0-7 0-14 1-21z m-54-112c-7 58 11 85 22 97 10-9 23-14 37-15-1-46-37-71-59-82z m209 7c-70 0-127 57-127 126v48c23 11 84 47 127 109 43-62 104-98 127-109v-48c0-69-57-126-127-126z m179 136c0-15-10-27-24-31 1 7 1 14 1 21v41c13-4 23-16 23-31z m30-143c-22 11-58 36-58 82 13 1 26 6 36 15 11-12 29-39 22-97z m-32 197c-9 5-21 8-33 8-16 8-90 47-131 120-3 5-8 8-13 8-5 0-10-3-13-8-41-73-115-112-131-120-12 0-23-3-33-8-10 72 0 128 33 168 18 21 60 58 144 58s127-37 145-58c32-40 43-96 32-168z m-140-95c-8 3-17 0-20-8 0 0-3-7-17-7s-17 7-17 7c-3 8-12 11-19 8-8-3-12-11-8-19 3-9 17-25 44-25s41 16 45 25c3 8-1 16-8 19z m12 441c1 2 2 4 2 6 0 8-7 15-15 15-6 0-12-4-14-9 0 0 0 0 0 0 0-1-5-10-22-10s-21 9-22 10c0 0 0 0 0 0-2 5-7 9-14 9-8 0-14-7-14-15 0-2 0-4 1-6 4-10 20-28 49-28 30 0 45 18 49 28z m-481-450c-6 0-12-4-14-9 0 0 0 0 0 0 0-1-4-8-18-8-14 0-18 7-19 8 0 0 0 0 0 0-2 5-7 9-13 9-9 0-15-7-15-15 0-2 0-4 1-6 4-10 18-26 46-26s41 16 45 26c0 0 0 0 0 0 1 2 2 4 2 6 0 8-7 15-15 15z m4 471c-7 0-12-4-14-10 0 0 0 0 0 0-1-1-6-10-22-10s-22 9-22 10c0 0 0 0 0 0-2 6-8 10-14 10-8 0-15-7-15-15 0-2 1-4 2-6 4-11 19-28 49-28s45 17 49 28c1 2 1 4 1 6 0 8-6 15-14 15z" horiz-adv-x="1000" />

<glyph glyph-name="020-wifi" unicode="&#xe81e;" d="M990 548c-129 137-303 213-490 213-187 0-361-76-489-213-15-16-14-41 1-56 16-14 41-13 56 2 113 122 267 189 432 189 165 0 319-67 432-189 8-8 19-12 29-12 10 0 19 3 27 10 15 15 16 40 2 56z m-144-162c-95 96-218 149-346 149-128 0-251-53-346-149-15-15-15-40 0-55 15-15 40-15 55 0 81 81 184 125 291 125 107 0 211-44 291-125 7-7 17-11 27-11 10 0 20 3 28 11 15 15 15 40 0 55z m-156-162c-51 51-124 82-190 82 0 0 0 0 0 0h-3c0 0 0 0 0 0-67 0-139-31-190-82-16-15-16-39-1-55 8-7 18-11 28-11 10 0 20 3 28 11 36 36 89 59 135 59 0 0 0 0 0 0h3c0 0 0 0 0 0 46 0 99-23 135-59 15-15 40-15 55 0 15 16 15 40 0 55z" horiz-adv-x="1000" />

<glyph glyph-name="021-pin" unicode="&#xe820;" d="M500 850c-184 0-333-149-333-333 0-55 14-110 40-159l275-497c3-7 10-11 18-11s15 4 18 11l275 497c27 49 40 104 40 159 0 184-149 333-333 333z m0-500c-92 0-167 75-167 167 0 92 75 166 167 166s167-74 167-166c0-92-75-167-167-167z" horiz-adv-x="1000" />

<glyph glyph-name="023-family-1" unicode="&#xe822;" d="M500 575c90 55 154 113 152 175 0 55-44 100-99 100-19 0-37-5-53-15-16 10-34 15-53 15-55 0-99-45-99-100-1-58 53-115 152-175z m-53 216c24 1 39-24 53-39 12 14 31 42 53 39 22 0 41-18 41-41 0-20-17-54-94-105-77 51-94 85-94 105 0 23 19 41 41 41z m395-522c42 32 70 83 70 140 0 97-79 176-177 176s-176-79-176-176c0-57 27-108 70-140-11-5-21-10-30-16-26 24-61 38-99 38-20 0-39-4-56-11-21 19-46 36-73 47 43 33 70 84 70 141 0 97-79 176-176 176s-177-79-177-176c0-57 28-108 70-141-93-41-158-134-158-242v-235h1000v176c0 108-65 201-158 243z m-224 140c0 65 52 118 117 118s118-53 118-118-53-118-118-118-117 53-117 118z m-30-265c0-49-39-88-88-88s-88 39-88 88 39 88 88 88 88-39 88-88z m-441 324c0 65 53 118 118 118s117-53 117-118-52-118-117-118-118 53-118 118z m179-559h-267v176c0 114 92 206 206 206 49 0 94-17 129-45-25-27-41-63-41-102 0-46 22-87 55-114-43-26-73-70-82-121z m60 0c13 50 59 88 114 88s101-38 114-88z m555 0h-267c-9 51-39 95-82 121 34 27 55 68 55 114 0 22-5 43-13 61 30 18 64 27 101 27 114 0 206-92 206-206z" horiz-adv-x="1000" />

<glyph glyph-name="024-family-5" unicode="&#xe823;" d="M143 618c57 0 103 46 103 103 0 56-46 102-103 102-57 0-103-46-103-102 0-57 46-103 103-103z m0 171c38 0 69-30 69-68 0-38-31-69-69-69-38 0-69 31-69 69 0 38 31 68 69 68z m-99-590v-305c0-10 8-17 17-17 10 0 17 7 17 17v314c0 0 0 1 0 1 0 6-3 12-9 15-22 11-35 34-35 58v187c0 36 30 66 66 66h87c36 0 66-30 66-66v-187c0-24-14-47-35-58-6-3-9-9-9-16 0 0 0 0 0 0v-314c0-10 7-17 17-17 9 0 17 7 17 17v305c27 19 44 50 44 83v187c0 55-45 100-100 100h-87c-55 0-100-45-100-100v-187c0-33 17-64 44-83z m424 187c57 0 103 46 103 103 0 56-46 103-103 103-56 0-103-47-103-103 0-57 47-103 103-103z m0 172c38 0 69-31 69-69 0-38-31-69-69-69-38 0-69 31-69 69 0 38 31 69 69 69z m-72-501v-163c0-10 8-17 17-17 9 0 17 7 17 17v171c0 1 0 1 0 1 0 6-3 12-9 15-22 12-35 34-35 59v97c0 36 29 66 66 66h33c37 0 66-30 66-66v-97c0-25-13-47-35-59-6-3-9-9-9-15 0 0 0 0 0-1v-171c0-10 8-17 17-17 9 0 17 7 17 17v163c27 18 44 49 44 83v97c0 55-45 100-100 100h-33c-55 0-100-45-100-100v-97c0-34 17-65 44-83z m416 507c56 0 102 46 102 103 0 57-46 103-102 103-57 0-103-46-103-103 0-57 46-103 103-103z m0 172c38 0 68-31 68-69 0-38-30-69-68-69-38 0-69 31-69 69 0 38 31 69 69 69z m-172-598h100v-244c0-10 7-17 17-17 9 0 17 7 17 17v261c0 2-1 3-1 4 0 0 0 1 0 1-2 7-9 12-16 12 0 0 0 0 0 0h-89l77 154c1 3 1 5 1 8v82c0 36 30 65 66 65 36 0 65-29 65-65v-82c0-3 1-5 2-8l77-154h-88c0 0 0 0 0 0-8 0-15-5-17-12 0 0 0-1 0-1 0-1 0-2 0-4v-261c0-10 7-17 17-17 9 0 17 7 17 17v244h98c6 0 11 4 15 9 3 5 3 11 0 16l-87 175v78c0 55-45 99-99 99-55 0-100-44-100-99v-78l-87-175c-3-5-2-11 1-16 3-5 8-9 14-9z" horiz-adv-x="1000" />

<glyph glyph-name="023-family-4" unicode="&#xe824;" d="M822 704c0 80-65 146-146 146s-147-66-147-146 66-147 147-147 146 66 146 147z m-146-88c-49 0-88 39-88 88s39 87 88 87 88-39 88-87-40-88-88-88z m-557-737c0-16 13-29 29-29h704c16 0 29 13 29 29v268c37 49 59 110 59 176 0 129-106 234-235 234h-146c-23 0-43-8-59-22-16 14-36 22-59 22h-146c-129 0-234-105-234-234 0-66 21-127 58-176z m59 209c49-36 110-58 176-58v-121h-176z m293 30c0 35-21 65-50 79 5 5 12 9 20 9h118c8 0 15-4 20-9-29-14-50-44-50-79 0-39 25-71 59-83v-126h-176v126c34 12 59 44 59 83z m176-209v121c65 0 126 22 175 58v-179z m-147 531c32 0 59-26 59-59s-27-58-59-58-59 26-59 58 27 59 59 59z m-205 58h146c8 0 14-2 19-6-45-17-77-60-77-111 0-64 52-117 117-117s117 53 117 117c0 51-32 94-77 111 5 4 11 6 19 6h146c97 0 176-78 176-175 0-130-105-235-234-235h-30c-16 0-29 13-29 30s13 29 29 29h30c96 0 175 79 175 176 0 16-13 29-29 29s-29-13-29-29c0-65-53-117-117-117h-6c-12 34-44 58-82 58h-118c-38 0-70-24-82-58h-5c-65 0-118 52-118 117 0 16-13 29-29 29s-29-13-29-29c0-97 79-176 176-176h29c16 0 29-13 29-29s-13-30-29-30h-29c-130 0-235 105-235 235 0 97 79 175 176 175z m176 206c0 80-66 146-147 146s-146-66-146-146 65-147 146-147 147 66 147 147z m-147-88c-48 0-88 39-88 88s40 87 88 87 88-39 88-87-39-88-88-88z" horiz-adv-x="1000" />

<glyph glyph-name="025-family-2" unicode="&#xe825;" d="M502 167c35 0 64 29 64 64 0 35-29 64-64 64-35 0-64-29-64-64 0-35 29-64 64-64z m0 98c19 0 35-15 35-34 0-19-16-35-35-35-19 0-34 16-34 35 0 19 15 34 34 34z m283 373c59 0 106 48 106 106 0 59-47 106-106 106-58 0-105-47-105-106 0-58 47-106 105-106z m0 183c43 0 77-35 77-77 0-42-34-76-77-76-42 0-76 34-76 76 0 42 34 77 76 77z m157-345c-8 0-15-7-15-15v-201c0-5-4-9-9-9h-36v259c0 8-6 14-14 14s-15-6-15-14v-621c0-6-4-10-10-10h-34c-5 0-9 4-9 10v233c0 8-7 15-15 15-8 0-14-7-14-15v-233c0-6-5-10-10-10h-34c-5 0-9 4-9 10v621c0 8-7 14-15 14-8 0-15-6-15-14v-259h-35c-6 0-10 4-10 9v250c0 48 39 87 87 87h110c48 0 87-39 87-87 0-8 7-15 15-15 8 0 15 7 15 15 0 64-53 116-117 116h-110c-64 0-116-52-116-116v-250c0-21 17-38 39-38h35v-333c0-22 18-39 39-39h34c9 0 18 3 24 8 7-5 15-8 24-8h34c22 0 39 17 39 39v333h36c21 0 39 17 39 38v201c0 8-7 15-15 15z m-746 73c58 0 105 47 105 106 0 58-47 106-105 106-59 0-106-48-106-106 0-59 47-106 106-106z m0 182c42 0 76-34 76-76 0-42-34-77-76-77-43 0-77 35-77 77 0 42 34 76 77 76z m48-196h-97c-57 0-104-47-104-104v-219c0-20 16-36 36-36h1l-11-92c0-4 1-8 4-11 3-3 7-5 11-5h25v-182c0-20 16-36 36-36h29c8 0 16 3 22 7 6-4 13-7 21-7h30c19 0 36 16 36 36v81c0 8-7 14-15 14s-15-6-15-14v-81c0-4-3-7-6-7h-30c-4 0-7 3-7 7v156c0 8-6 15-14 15s-15-7-15-15v-156c0-4-3-7-6-7h-30c-4 0-7 3-7 7v182h115v-54c0-8 7-15 15-15 8 0 15 7 15 15v54h24c4 0 8 2 11 5 3 3 4 7 4 11l-10 92h0c20 0 36 16 36 36v219c0 57-47 104-104 104z m75-323l0 0c0-3-3-6-7-6h-4l-26 244c-1 8-8 14-16 13-9-1-14-8-13-16l38-350h-14-9-145-12-11l39 350c1 8-5 15-13 16-8 1-15-5-16-13l-27-244h-4c-3 0-6 3-6 6v219c0 41 33 75 74 75h97c41 0 75-34 75-75v-219z m294 4c-10-1-20-5-27-13l-55-58h-56l-55 58c-15 16-40 17-56 2-15-15-16-40-1-55l63-68v-194c0-21 17-38 38-38h77c21 0 39 17 39 38v81c0 8-7 14-15 14-8 0-15-6-15-14v-81c0-5-4-9-9-9h-24v123c0 8-7 14-15 14-8 0-15-6-15-14v-123h-23c-5 0-9 4-9 9v200c0 4-1 7-4 10l-67 72c-4 4-4 10 0 14 4 4 11 3 15-1l59-62c2-3 6-5 10-5h69c4 0 8 2 11 5l59 62c4 4 10 5 14 1 4-4 4-10 1-14l-68-72c-2-3-4-6-4-10v-70c0-9 7-15 15-15s15 6 15 15v64l63 68c15 15 14 40-2 55-7 7-17 11-28 11z" horiz-adv-x="1000" />

<glyph glyph-name="026-bathtub" unicode="&#xe827;" d="M1000 235c0 53-43 95-95 95h-787v391c0 39 31 70 70 70h64c11 0 21-4 28-12l30-34c-2-8-3-17-3-26v-38c-11-4-20-15-20-28 0-16 14-29 30-29h242c16 0 29 13 29 29 0 13-8 24-19 28v38c0 72-59 131-131 131-40 0-77-18-101-47l-13 14c-18 21-44 33-72 33h-64c-71 0-129-58-129-129v-394c0-2 0-3 0-4-34-14-59-48-59-88 0-40 24-74 59-88v-53c0-105 85-191 190-191h17v-24c0-16 13-29 29-29s29 13 29 29v24h352v-24c0-16 13-29 29-29s29 13 29 29v24h17c105 0 190 86 190 191v53c35 14 59 48 59 88z m-562 556c40 0 72-32 72-72v-37h-144v37c0 40 32 72 72 72z m313-829h-502c-72 0-131 59-131 132v45h765v-45c0-73-59-132-132-132z m154 236h-809c-21 0-37 16-37 37s16 37 37 37h809c20 0 37-17 37-37s-17-37-37-37z m-325 226c-3 12-12 21-25 23-12 2-24-4-30-15-5-11-4-24 4-34 9-9 22-12 33-7 13 5 21 19 18 33z m-117 0c-3 12-13 21-25 23-12 2-24-4-30-15-6-11-4-24 4-34 8-9 22-12 33-7 13 5 20 19 18 33z m-118 0c-2 12-12 21-24 23-12 2-24-4-30-15-6-11-4-24 4-34 8-9 22-12 33-7 13 5 20 19 17 33z m235 114c-1 12-10 23-22 26-12 3-24-2-31-12-7-11-7-24 1-34 7-10 20-14 32-11 13 4 22 17 20 31z m-117 0c-1 12-10 23-22 26-12 3-25-2-31-12-7-11-7-24 0-34 8-10 21-14 32-11 14 4 22 18 21 31z m-117 0c-1 12-10 23-22 26-12 3-25-2-32-12-6-11-6-24 1-34 7-10 21-14 32-11 13 4 22 18 21 31z" horiz-adv-x="1000" />

<glyph glyph-name="027-parking-sign" unicode="&#xe828;" d="M491 524c-25 0-42-2-52-5v-163c11-2 24-3 42-3 67 0 108 34 108 90 0 51-36 81-98 81z m380 326h-741c-66 0-119-53-119-118v-764c0-65 53-118 119-118h741c65 0 118 53 118 118v764c0 65-53 118-118 118z m45-863c0-35-29-64-64-64h-705c-35 0-64 29-64 64v724c0 36 29 65 64 65h705c35 0 64-29 64-65l0-724 0 0z m-64 743h-705c-10 0-19-8-19-19v-724c0-10 9-19 19-19h705c10 0 19 9 19 19v724c0 11-9 19-19 19z m-190-415c-43-40-106-58-180-58-16 0-30 1-43 3v-198h-122v545c38 6 92 11 168 11 77 0 132-15 169-44 35-28 58-74 58-128 0-54-18-100-50-131z" horiz-adv-x="1000" />

<glyph glyph-name="027-bathtub-1" unicode="&#xe829;" d="M950 317h-17v350c0 83-66 150-150 150-73 0-126-55-132-135-39-7-68-41-68-82 0-10 7-17 17-17h133c10 0 17 7 17 17 0 41-28 74-66 82 5 53 37 101 99 101 65 0 117-51 117-116v-350h-502c-7 38-40 66-81 66-17 20-40 34-67 34-32 0-60-19-73-45-14 6-29 11-44 11-41 0-74-28-81-66h-2c-28 0-50-22-50-50 0-29 22-50 50-50h20l45-179c13-51 60-88 113-88h14l-22-43c-5-9-2-19 7-22 1-2 5-2 6-2 7 0 12 4 15 9l30 58h462l28-57c4-6 9-10 15-10 4 0 5 0 7 4 7 3 10 13 7 21l-21 42c51 2 96 38 109 87l45 180h20c28 0 50 21 50 50 0 28-22 50-50 50z m-235 300h-95c7 20 27 33 48 33s40-13 47-33z m-582-267c15 0 29-7 40-18 4-5 10-7 17-5s10 6 12 13c5 25 25 43 50 43 18 0 35-8 43-25 3-6 12-10 18-8 2 0 4 0 5 0 22 0 40-13 47-33h-278c6 20 25 33 46 33z m722-303c-10-37-43-64-82-64h-543c-38 0-72 27-82 64l-43 170h790l-40-170z m95 203h-33-834-33c-10 0-17 7-17 17s7 16 17 16h17 316 567c10 0 17-6 17-16s-7-17-17-17z m-350 258c10 0 17 7 17 17v8c0 10-7 17-17 17s-17-7-17-17v-8c0-10 7-17 17-17z m0-76c10 0 17 8 17 16v19c0 10-7 16-17 16s-17-6-17-16v-19c0-10 7-16 17-16z m0-65c10 0 17 6 17 16v9c0 10-7 16-17 16s-17-6-17-16v-9c0-10 7-16 17-16z m67 141c10 0 16 7 16 17v8c0 10-6 17-16 17-10 0-17-7-17-17v-8c0-10 7-17 17-17z m-17-60c0-10 7-16 17-16 10 0 16 8 16 16v19c0 10-6 16-16 16-10 0-17-6-17-16v-19z m0-65c0-10 7-16 17-16 10 0 16 6 16 16v9c0 10-6 16-16 16-10 0-17-6-17-16v-9z m83 125c10 0 17 7 17 17v8c0 10-7 17-17 17s-16-7-16-17v-8c0-10 6-17 16-17z m-16-60c0-10 6-16 16-16s17 8 17 16v19c0 10-7 16-17 16s-16-6-16-16v-19z m0-65c0-10 6-16 16-16s17 6 17 16v9c0 10-7 16-17 16s-16-6-16-16v-9z" horiz-adv-x="1000" />

<glyph glyph-name="026-parking-square-sign" unicode="&#xe82a;" d="M612 477c0-47-38-86-86-86h-138v172h138c48 0 86-39 86-86z m388 238v-730c0-75-60-135-135-135h-730c-75 0-135 60-135 135v730c0 75 60 135 135 135h730c75 0 135-60 135-135z m-254-238c0 121-99 220-220 220h-245c-15 0-27-12-27-27v-640c0-15 12-26 27-26h80c15 0 27 11 27 26v227h138c121 0 220 99 220 220z" horiz-adv-x="1000" />

<glyph glyph-name="028-air-conditioning" unicode="&#xe82b;" d="M961 389h-129l44 77c10 19 4 43-15 54-19 10-43 4-54-15l-44-76-63 110h88c22 0 39 17 39 39s-17 39-39 39h-88l64 112c11 19 5 43-14 54-19 11-43 4-54-14l-64-112-44 76c-11 19-35 25-54 14-19-10-26-35-15-53l44-77h-126l44 77c11 18 4 43-15 53-19 11-43 5-54-14l-44-76-64 112c-11 18-35 25-54 14-19-11-25-35-14-54l64-112h-88c-22 0-39-17-39-39s17-39 39-39h88l-63-110-44 76c-11 19-35 25-54 15-19-11-25-35-14-54l44-77h-130c-21 0-39-17-39-39 0-22 18-39 39-39h130l-44-77c-11-18-5-43 14-53 6-4 13-6 20-6 13 0 27 7 34 20l44 76 63-109h-88c-22 0-39-18-39-40s17-39 39-39h88l-64-112c-11-19-5-43 14-54 6-4 13-5 20-5 13 0 27 7 34 19l64 112 44-76c8-13 21-20 35-20 6 0 13 2 19 6 19 10 26 35 15 54l-44 76h126l-44-76c-11-19-4-44 15-54 6-4 13-6 19-6 14 0 27 7 35 20l44 76 64-112c7-12 21-19 34-19 7 0 14 1 20 5 19 11 25 35 14 54l-64 112h88c22 0 39 17 39 39s-17 40-39 40h-88l63 109 44-76c7-13 21-20 34-20 7 0 14 2 20 6 19 10 25 35 14 53l-43 77h129c21 0 39 17 39 39 0 22-18 39-39 39z m-352-227h-218l-109 188 109 189h218l109-189-109-188z" horiz-adv-x="1000" />

<glyph glyph-name="029-bathroom" unicode="&#xe82d;" d="M950 350h-816v367c0 55 44 100 99 100h34v-69c-39-7-67-42-67-81 0-9 8-17 17-17h133c9 0 17 8 17 17 0 39-28 74-67 81v85c0 10-7 17-17 17h-50c-73 0-133-60-133-133v-367h-50c-27 0-50-22-50-50 0-27 23-50 50-50 5-121 57-250 135-288-26-27-24-69 3-94 26-25 69-24 94 3 20 22 24 54 9 79h418c-6-10-9-21-9-33 0-37 29-67 66-67 37 0 67 29 67 66 0 17-6 34-18 46 78 38 130 167 135 288 27 0 50 23 50 50 0 28-23 50-50 50z m-650 364c14-5 26-16 31-31h-95c9 26 38 40 64 31z m250-397h233v-183h-233v183z m-516-17c0 9 7 17 16 17h467v-33h-467c-9 0-16 7-16 16z m199-416c-18 0-33 15-33 33s15 33 33 33 34-15 34-33-15-33-34-33z m534 0c-19 0-34 15-34 33s15 33 34 33c18 0 33-15 33-33s-15-33-33-33z m0 100h-534c-74 0-144 127-149 266h433v-166c0-10 7-17 16-17 10 0 17 7 17 17v16h33v-16c0-10 8-17 17-17s17 7 17 17v16h33v-16c0-10 7-17 17-17s16 7 16 17v16h34v-16c0-10 7-17 16-17s17 7 17 17v16h33v-16c0-10 8-17 17-17s17 7 17 17v166h100c-6-139-76-266-150-266z m183 300h-133v33h133c9 0 17-8 17-17s-8-16-17-16z m-650 316c0 9-7 17-17 17s-16-8-16-17v-17c0-9 7-16 16-16s17 7 17 16v17z m0-83c0 9-7 17-17 17s-16-8-16-17v-17c0-9 7-16 16-16s17 7 17 16v17z m-17-67c-9 0-16-7-16-16v-17c0-9 7-17 16-17s17 8 17 17v17c0 9-7 16-17 16z m84 150c0 9-8 17-17 17s-17-8-17-17v-17c0-9 8-16 17-16s17 7 17 16v17z m0-83c0 9-8 17-17 17s-17-8-17-17v-17c0-9 8-16 17-16s17 7 17 16v17z m-17-67c-9 0-17-7-17-16v-17c0-9 8-17 17-17s17 8 17 17v17c0 9-8 16-17 16z m-117 150c0 9-7 17-16 17s-17-8-17-17v-17c0-9 8-16 17-16s16 7 16 16v17z m0-83c0 9-7 17-16 17s-17-8-17-17v-17c0-9 8-16 17-16s16 7 16 16v17z m-16-67c-9 0-17-7-17-16v-17c0-9 8-17 17-17s16 8 16 17v17c0 9-7 16-16 16z" horiz-adv-x="1000" />

<glyph glyph-name="029-breakfast" unicode="&#xe82e;" d="M317 292a16 16 0 0 1 22 0l156 156a16 16 0 0 1-22 22l-156-156a16 16 0 0 1 0-22z m156 53l-62-62a16 16 0 0 1 22-22l62 62a16 16 0 1 1-22 22z m-160 52a16 16 0 0 1 11 5l62 62a16 16 0 0 1-22 22l-62-62a16 16 0 0 1 11-27z m593-16h-31v16a16 16 0 0 1-16 16h-250v33c36 8 63 46 63 92 0 51-35 93-78 93h-485c-43 0-78-42-78-93 0-46 27-84 63-92v-283h-47a16 16 0 0 1-16-16 78 78 0 0 1 78-78h782a78 78 0 0 1 78 78 16 16 0 0 1-16 16h-130a141 141 0 0 1 44 62h39a63 63 0 0 1 63 63v31a63 63 0 0 1-63 62z m-687 219h375c26 0 47-28 47-62s-21-63-47-63a16 16 0 0 1-16-16v-46h-31a16 16 0 0 1-16-16v-125a140 140 0 0 1 47-105v-4h-344v296a16 16 0 0 1-15 16c-26 0-47 28-47 63s21 62 47 62z m-156-62c0 34 21 62 46 62h52a105 105 0 0 1-20-62c0-46 27-84 62-92v-283h-78v296a16 16 0 0 1-16 16c-25 0-46 28-46 63z m872-407a47 47 0 0 0-44-31h-782a47 47 0 0 0-44 31h870z m-91 141a110 110 0 0 0-110-109h-62a109 109 0 0 0-109 109v109h281z m94 16a31 31 0 0 0-32-32h-32a141 141 0 0 1 1 16v78h31a31 31 0 0 0 32-31z m-224 171a16 16 0 0 1 31 0 12 12 0 0 0 3 8 44 44 0 0 1 0 47 12 12 0 0 0-3 8c0 3 1 4 3 8a42 42 0 0 1 7 23 16 16 0 0 1-32 0 12 12 0 0 0-2-7 44 44 0 0 1 0-48c2-3 2-4 2-7a12 12 0 0 0-2-8 42 42 0 0 1-7-24z m94 0a16 16 0 0 1 31 0 12 12 0 0 0 3 8 44 44 0 0 1 0 47 12 12 0 0 0-3 8c0 3 1 4 3 8a42 42 0 0 1 6 23 16 16 0 0 1-31 0 12 12 0 0 0-2-7 44 44 0 0 1 0-48c2-3 2-4 2-7a12 12 0 0 0-2-8 42 42 0 0 1-7-24z" horiz-adv-x="1000" />

<glyph glyph-name="030-bathtub" unicode="&#xe82f;" d="M1000 235c0 53-43 95-95 95h-787v391c0 39 31 70 70 70h64c11 0 21-4 28-12l30-34c-2-8-3-17-3-26v-38c-11-4-20-15-20-28 0-16 14-29 30-29h242c16 0 29 13 29 29 0 13-8 24-19 28v38c0 72-59 131-131 131-40 0-77-18-101-47l-13 14c-18 21-44 33-72 33h-64c-71 0-129-58-129-129v-394c0-2 0-3 0-4-34-14-59-48-59-88 0-40 24-74 59-88v-53c0-105 85-191 190-191h17v-24c0-16 13-29 29-29s29 13 29 29v24h352v-24c0-16 13-29 29-29s29 13 29 29v24h17c105 0 190 86 190 191v53c35 14 59 48 59 88z m-562 556c40 0 72-32 72-72v-37h-144v37c0 40 32 72 72 72z m313-829h-502c-72 0-131 59-131 132v45h765v-45c0-73-59-132-132-132z m154 236h-809c-21 0-37 16-37 37s16 37 37 37h809c20 0 37-17 37-37s-17-37-37-37z m-325 226c-3 12-12 21-25 23-12 2-24-4-30-15-5-11-4-24 4-34 9-9 22-12 33-7 13 5 21 19 18 33z m-117 0c-3 12-13 21-25 23-12 2-24-4-30-15-6-11-4-24 4-34 8-9 22-12 33-7 13 5 20 19 18 33z m-118 0c-2 12-12 21-24 23-12 2-24-4-30-15-6-11-4-24 4-34 8-9 22-12 33-7 13 5 20 19 17 33z m235 114c-1 12-10 23-22 26-12 3-24-2-31-12-7-11-7-24 1-34 7-10 20-14 32-11 13 4 22 17 20 31z m-117 0c-1 12-10 23-22 26-12 3-25-2-31-12-7-11-7-24 0-34 8-10 21-14 32-11 14 4 22 18 21 31z m-117 0c-1 12-10 23-22 26-12 3-25-2-32-12-6-11-6-24 1-34 7-10 21-14 32-11 13 4 22 18 21 31z" horiz-adv-x="1000" />

<glyph glyph-name="030-breakfast-tray" unicode="&#xe830;" d="M1075 333v39c0 22-18 40-40 40h-280c14 17 21 38 21 60 0 55-44 99-99 99h-518c-39 0-74-22-90-57s-11-77 14-107c10-10 16-24 17-39v-473c0-14 3-28 11-40h-71c-22 0-40-18-40-40 0-88 71-159 159-159h876c88 0 159 71 159 159 0 22-18 40-40 40h-134c35 30 55 74 55 119v40c66 0 119 54 119 120v79c0 66-53 120-119 120z m-40-20h-438v59h438z m-833 130c-1 2-1 4 0 6 2 2 4 3 7 3h418c3 0 5-1 7-3 1-2 1-4 0-6-4-10-8-20-11-31h-26c-22 0-40-18-40-40v-398c0-13 2-27 6-40h-344v434c0 26-6 51-17 75z m-63-548v473c0 24-9 47-25 65-9 11-14 25-14 39 0 33 26 59 59 60h518c33 0 59-27 59-60 0-15-6-29-15-40-5-6-10-13-13-20h-43c1 5 3 9 5 14 7 14 6 30-3 44-8 14-23 22-40 22h-419c-16 0-31-9-39-22-9-14-10-30-3-44 9-18 13-38 13-58v-434c0-22 18-39 40-39h360c9-15 20-29 33-40h-433c-22 0-40 18-40 40z m1015-80c0-66-53-119-119-119h-876c-66 0-119 53-119 119z m-119 159c0-66-54-119-119-119h-199c-66 0-120 53-120 119v299h438z m119 160c0-44-35-80-79-80v239c44 0 79-36 79-80z m-338 457c0-11 9-20 20-20s20 9 20 20c0 26-8 51-23 71-11 14-17 31-17 49 0 17 6 35 17 48 15 21 23 46 23 71 0 11-9 20-20 20s-20-9-20-20c0-18-5-35-17-49-15-20-23-45-23-70 0-26 8-51 23-71 12-14 17-31 17-49z m129 49c6-9 18-12 28-6s12 18 6 28c-2 3-5 7-7 10-11 13-17 29-17 45 0 17 6 33 17 45 15 19 23 43 23 68 0 11-9 20-20 20s-20-9-20-20c1-16-5-32-16-45-15-19-24-43-23-68-1-24 8-48 23-68 2-3 4-5 6-9z m-278 0c6-9 18-12 27-6s12 18 6 28c-2 3-5 7-7 10-11 13-17 29-16 45-1 17 5 33 16 45 15 19 24 43 24 68 0 11-9 20-20 20s-20-9-20-20c0-16-6-32-17-45-15-19-23-43-23-68 0-24 8-48 23-68 3-3 5-5 7-9z" horiz-adv-x="1000" />

<glyph glyph-name="031-breakfast-1" unicode="&#xe831;" d="M766 288h78c85 0 154 69 154 154 0 80-65 146-146 146-3 0-7 0-10 0v32c0 8-6 15-14 15h-69c-8 0-14-7-14-15s6-14 14-14h54v-132c0-34-7-66-21-97-10-24-25-45-43-65-15-16-33-30-52-41h-348c-72 42-116 120-116 203v132h468c8 0 15 6 15 14s-7 15-15 15h-482c-9 0-15-7-15-15v-146c0-79 35-153 94-203h-139c-8 0-15-6-15-14v-25c0-33 12-64 33-88-6-2-11-5-16-8-7-4-10-13-5-20 2-5 7-7 12-7 3 0 5 1 8 2 13 8 29 13 46 13h38c0-5 0-9 1-14l26-231h-108l-42 127c-3 9-5 19-5 28 0 14 3 28 10 40 3 7 0 16-7 20-7 3-16 1-20-7-6-12-10-25-11-38h-31c-24 0-47-12-60-32-13-21-15-46-5-68 13-29 35-54 62-72 27-18 59-27 91-27h485c66 0 126 39 153 99 4 10 6 19 6 29 0 39-31 71-70 71h-31c-3 17-9 34-18 49h82c74 0 134 60 134 134v25c0 8-7 14-15 14h-139c6 5 12 11 18 17z m-731-327c-6 13-5 28 3 40 8 12 20 18 35 18h31c1-7 2-15 5-22l39-117c-22 2-43 9-62 22-23 14-40 35-51 59z m272 205c12 14 31 23 50 23h93c20 0 38-9 51-23 13-14 19-34 17-53l-27-234h-174l-27 234c-2 19 4 39 17 53z m213-287l27 231c0 5 0 9 0 14h39c24 0 46-10 63-26 17-17 26-40 26-64 0-9-1-19-4-28l-43-127z m256 99c0-6-1-11-4-17-20-45-63-76-112-81l38 117c3 7 5 15 6 22h31c23 0 41-18 41-41z m97 254c0-58-47-105-105-105h-109c-20 17-46 26-73 26h-44c-4 12-11 23-19 33-19 20-45 32-73 32h-93c-28 0-54-12-72-32-9-10-15-21-19-33h-44c-4 0-8 0-12-1-23 20-37 49-37 80v10h700v-10z m-31 257c3 0 7 0 10 0 26 0 48-21 48-47 0-31-25-56-56-56h-17c10 28 15 57 15 88z m-27-132h29c47 0 85 38 85 85 0 42-35 77-77 77-3 0-7 0-10-1v40c3 1 7 1 10 1 64 0 117-53 117-117 0-69-56-125-125-125h-53c9 12 17 26 24 40z m-450 389c12 0 22-10 22-22s-10-23-22-23c-8 0-15-6-15-14s7-15 15-15c28 0 52 23 52 52s-24 52-52 52c-13 0-23 10-23 22s10 23 23 23c8 0 14 6 14 14s-6 15-14 15c-29 0-52-23-52-52s23-52 52-52z m136 0c12 0 22-10 22-22s-10-23-22-23c-8 0-15-6-15-14s7-15 15-15c28 0 51 23 51 52s-23 52-51 52c-13 0-23 10-23 22s10 23 23 23c8 0 14 6 14 14s-6 15-14 15c-29 0-52-23-52-52s23-52 52-52z" horiz-adv-x="1000" />

<glyph glyph-name="031-television" unicode="&#xe832;" d="M941 745h-97c-10 0-19-9-19-20s9-19 19-19h97c11 0 20-9 20-20v-500c0-11-9-20-20-20h-882c-11 0-20 9-20 20v19l126 126c8 7 8 20 0 27-7 8-20 8-27 0l-99-98v426c0 11 9 20 20 20h269l-207-208c-8-7-8-20 0-27 4-4 9-6 14-6 5 0 10 2 13 6l230 230c2 1 3 3 4 5h287c11 0 19 8 19 19s-8 20-19 20h-610c-33 0-59-27-59-59v-500c0-32 26-59 59-59h367v-54h-67c-32 0-58-27-58-59v-39c0-11 9-20 19-20h360c11 0 19 9 19 20v39c0 32-26 59-58 59h-67v54h367c33 0 59 27 59 59v500c0 32-26 59-59 59z m-476-618h70v-54h-70v54z m176-93c10 0 19-9 19-20v-20h-320v20c0 11 9 20 19 20h282z m137 705c-4 3-9 6-14 6s-10-3-14-6c-4-4-6-9-6-14s2-10 6-14c4-3 9-5 14-5s10 2 14 5c3 4 5 9 5 14s-2 10-5 14z m-101-207c-10 4-22 0-26-10l-51-117-55 117c-4 10-16 14-26 10-10-5-14-16-9-26l73-156c3-7 10-12 18-12 0 0 0 0 0 0 8 0 15 5 18 12l68 156c4 10-1 22-10 26z m-245 2h-95c-11 0-20-9-20-20s9-19 20-19h28v-137c0-11 9-20 20-20s19 9 19 20v137h28c11 0 20 8 20 19s-9 20-20 20z m-211-120c-4 4-9 6-14 6s-10-2-14-6-5-9-5-14 2-10 5-13 9-6 14-6 10 2 14 6 6 8 6 13-2 11-6 14z" horiz-adv-x="1000" />

<glyph glyph-name="032-keys" unicode="&#xe833;" d="M652 265v-160c0-8 6-14 14-14s15 6 15 14v170c0 7-4 13-11 14-33 10-63 31-84 59-22 29-33 63-33 99 0 91 74 164 164 164 17 0 34-2 50-7-5-17-12-33-21-48-8 4-18 7-28 7-35 0-65-30-65-65 0-36 30-65 65-65s65 29 65 65c0 15-5 29-14 40 11 17 19 35 25 55 19-11 36-24 50-42 6-6 15-7 21-2s7 15 2 21c-18 23-41 40-67 52 1 9 2 17 2 26 0 111-91 202-203 202s-202-91-202-202c0-30 7-61 20-88-41-61-44-141-7-205l-135-135c-6-6-6-15 0-21 6-5 15-5 21 0l143 143c5 5 6 13 2 19-44 65-35 152 20 207 41 41 100 57 154 44-19-12-36-28-50-45-26-3-50-15-69-33-45-46-45-119 0-164 17-17 38-28 61-32 2-3 4-5 6-8 12-15 26-29 41-40-40-7-83 2-117 25-6 4-14 3-19-2l-134-134c-6-6-6-16 0-21l31-32c8-8 8-22 0-29-7-8-21-8-29 0l-32 31c-5 6-15 6-20 0l-39-38c-5-5-5-15 0-20l32-32c8-8 8-21 0-29-8-9-21-9-29 0l-32 31c-6 6-15 6-21 0l-41-41c-8-9-21-9-30 0-8 8-8 21 0 29l130 130c6 6 6 15 0 21-5 5-15 5-20 0l-130-130c-20-20-20-52 0-71 19-20 51-20 71 0l31 31 21-21c20-20 51-20 71 0 20 19 20 51 0 71l-21 21 17 17 21-21c19-20 53-20 71 0 20 19 20 52 0 71l-21 21 116 116c48-28 107-34 160-15 4-2 7-3 11-4z m66 268c4 0 7 0 10-1-13-14-28-26-45-35 0 0 0 0 0 1 0 19 16 35 35 35z m36-35c0-20-16-36-36-36-8 0-16 3-22 8 21 11 39 26 54 43 3-4 4-10 4-15z m-313 91c-1-1-2-2-3-3-8 20-11 41-11 62 0 95 77 173 172 173s173-78 173-173c0-5 0-10 0-15-18 5-36 8-55 8-22 0-43-4-63-11-73 31-158 15-213-41z m102-58c-7-13-11-27-15-41-7 4-14 7-21 12 3 3 6 7 10 11 7 7 16 13 26 18z m-26-140c-23 23-30 55-22 84 9-6 19-11 29-15 0-4 0-9 0-13 0-25 4-49 13-71-7 4-14 9-20 15z m382 124c-3 7-11 11-19 8s-11-11-9-18c7-19 11-38 11-58 0-71-46-134-114-156-6-2-10-8-10-14v-82l-41-32c-8-5-8-18 0-23l32-25-32-25c-8-6-8-18 0-23l32-25-32-26c-8-5-8-17 0-23l41-32v-35l-40-40-37 39v121c0 9-7 15-15 15s-14-6-14-15v-126c0-4 1-8 3-10l52-55c5-6 15-7 21-1l55 55c3 3 5 7 5 11v48c0 5-3 9-6 12l-32 25 32 25c7 5 7 18 0 23l-32 25 32 25c7 6 7 18 0 23l-32 25 32 26c3 2 6 7 6 11v78c74 29 123 101 123 181 0 23-4 46-12 68z" horiz-adv-x="1000" />

<glyph glyph-name="032-wc-sign" unicode="&#xe834;" d="M581 519c-6 8-16 13-27 13h-3c-14 0-26-9-31-22l-69-210-70 210c-5 13-17 22-31 22h-2c0 0 0 0 0 0-1 0-1 0-1 0h-2c-14 0-27-9-31-22l-70-210-70 210c-4 13-17 22-31 22h-3c-10 0-20-5-26-13-6-9-8-20-5-30l102-299c4-13 17-22 31-22h1c0 0 1 0 1 0 1 0 1 0 1 0h1c14 0 26 9 31 22l70 209 71-209c4-13 16-22 30-22h2c0 0 0 0 1 0 0 0 1 0 1 0h1c14 0 26 9 31 22l101 299c4 10 2 21-4 30z m300-257c-12 11-31 12-43 1-22-18-50-28-79-28-66 0-119 51-119 115 0 64 53 116 119 116 30 0 57-10 79-28 13-11 32-10 44 1l1 2c6 6 9 15 9 24 0 9-5 18-12 23-33 29-76 44-121 44-102 0-186-81-186-182 0-100 84-182 186-182 45 0 88 16 122 44 7 6 11 15 11 24 1 9-3 18-10 25l-1 1z m-89 588h-584c-115 0-208-93-208-208v-584c0-115 93-208 208-208h584c115 0 208 93 208 208v584c0 115-93 208-208 208z m170-792c0-94-76-170-170-170h-584c-94 0-170 76-170 170v584c0 94 76 170 170 170h584c94 0 170-76 170-170v-584z" horiz-adv-x="1000" />

<glyph glyph-name="033-key" unicode="&#xe835;" d="M654 850c-186 0-338-152-338-338 0-41 8-82 22-120l-323-323c-5-5-7-11-7-17v-177c0-14 11-25 24-25h146c7 0 13 3 18 7l49 49c4 5 7 11 7 18v60h60c14 0 25 11 25 25v24h24c14 0 25 11 25 24v53h53c6 0 12 3 17 8l78 78c39-15 79-22 120-22 187 0 338 152 338 338 0 186-151 338-338 338z m0-627c-40 0-79 8-116 25-9 4-20 1-27-5 0 0 0-1 0-1l-83-82h-67c-14 0-25-11-25-25v-53h-24c-13 0-24-11-24-25v-24h-61c-13 0-24-11-24-24v-75l-35-35h-111v35l301 301c9 9 9 23 0 32s-23 8-31 0l-270-270v44l328 328c0 0 0 0 0 0 7 7 9 18 5 27-16 37-24 76-24 116 0 159 129 289 288 289s289-130 289-289c0-159-130-289-289-289z m103 484c-51 0-92-41-92-92s41-92 92-92 92 41 92 92-41 92-92 92z m0-135c-24 0-43 19-43 43s19 43 43 43 43-19 43-43-19-43-43-43z" horiz-adv-x="1000" />

<glyph glyph-name="034-blueprint" unicode="&#xe836;" d="M116-62h628v167h256v628h-884z m59 736h766v-511h-256v-167h-510z m0 0m-59 176h884v-59h-884z m0 0m-116-117h59v-795h-59z m0 0m516-257l-57-95-57 95h-50v-178h55v79l38-63h27l38 65 1-81h55l-1 178z m0 0m142-54c17 15 21 24 21 34 0 20-19 33-47 33-26 0-43-10-50-25l29-14c4 6 9 10 17 10 7 0 10-3 10-7 0-4-1-8-9-14l-40-35v-23h93v29h-38z m0 0" horiz-adv-x="1000" />

<glyph glyph-name="034-key-1" unicode="&#xe837;" d="M912 758c-56 56-131 88-211 88-80 0-155-32-212-88-43-44-72-99-83-159-10-54-4-109 15-160l-31-31-73-20c-7-2-12-8-15-15l-19-67-66-19c-7-2-13-8-15-15l-19-66-67-19c-7-2-13-8-15-15l-19-67-66-19c-10-3-17-13-16-24l21-165c1-10 8-17 18-19l141-23c1 0 2-1 3-1 6 0 12 3 16 7l402 403c109-38 229-11 311 71 57 56 88 131 88 211s-31 155-88 212z m-30-393c-73-73-182-95-278-56-8 4-17 2-23-5l-405-404-114 18-16 131 60 18c7 2 13 7 15 15l19 66 67 19c7 2 12 8 14 15l19 67 67 19c7 2 13 7 15 15l19 66 67 19c3 1 6 3 9 6l45 45c6 6 8 16 5 24-43 97-22 209 53 284 48 48 112 75 181 75 68 0 132-27 181-75 99-100 99-262 0-362z m18 202c-5 46-25 89-57 121-33 32-76 53-121 58-30 3-57-13-70-40-13-27-8-59 13-80l116-115c13-14 31-21 49-21 10 0 21 2 31 7 27 13 42 41 39 70z m-58-31c-8-4-21-4-31 6l-115 115c-10 10-9 22-5 30 2 4 8 16 23 16 1 0 2-1 3-1 36-3 69-19 95-45 25-25 41-59 45-94 2-17-11-25-15-27z m-453-259l-249-249c-9-9-9-22 0-31 4-4 10-6 15-6s11 2 16 6l249 249c8 9 8 23 0 31-9 9-22 9-31 0z m73 73l-2-2c-9-9-9-22 0-31 4-4 10-6 15-6s11 2 16 6l2 2c8 9 8 23 0 31-9 9-23 9-31 0z" horiz-adv-x="1000" />

<glyph glyph-name="035-blueprint-1" unicode="&#xe838;" d="M183 17h400 400c10 0 17 6 17 16v300 300 200c0 10-7 17-17 17h-316-184-300c-10 0-16-7-16-17v-400-133-200-67c0-10 6-16 16-16z m17 266h167c-9-88-79-158-167-166v166z m0 534h267v-100h-17c-10 0-17-7-17-17s7-17 17-17h67c10 0 16 7 16 17s-6 17-16 17h-17v100h150v-184c0-10 7-16 17-16h66v-17c0-10 7-17 17-17s17 7 17 17v67c0 10-7 16-17 16s-17-6-17-16v-17h-50v167h284v-167h-67v17c0 10-7 16-17 16-10 0-16-6-16-16v-67c0-10 6-17 16-17 10 0 17 7 17 17v17h67v-267h-100v17c0 10-7 16-17 16s-17-6-17-16v-67c0-10 7-17 17-17s17 7 17 17v17h100v-267h-367v267h100v-17c0-10 7-17 17-17s16 7 16 17v67c0 10-6 16-16 16s-17-6-17-16v-17h-117c-10 0-16-7-16-17v-283h-367v34c112 8 200 102 200 216 0 10-7 17-17 17h-183v100h283c10 0 17 6 17 16v117h17c10 0 16 7 16 17 0 10-6 16-16 16h-67c-10 0-17-6-17-16 0-10 7-17 17-17h17v-100h-267v367z m-72-795c7 6 7 16 0 23-6 7-16 7-23 0l-22-22v770l22-21c3-4 7-5 12-5s8 1 11 5c7 6 7 16 0 23l-47 47c-2 5-8 8-14 8-7 0-12-3-15-8l-47-47c-7-7-7-17 0-23s17-7 23 0l22 21v-770l-22 22c-6 7-16 7-23 0-7-7-7-17 0-23l47-48c3-4 8-7 15-7 6 0 12 3 14 7l47 48z m872-105c0 0 0 0 0 0 0 6-3 11-8 14l-47 47c-7 7-17 7-23 0-7-6-7-16 0-23l21-22h-770l22 22c7 7 7 17 0 23-7 7-17 7-23 0l-47-47c-5-3-8-8-8-14s3-12 8-15l47-47c3-3 6-5 11-5 5 0 9 2 12 5 7 7 7 17 0 23l-22 22h770l-21-22c-7-6-7-16 0-23 3-3 6-5 11-5s9 2 12 5l47 47c5 3 8 8 8 15z" horiz-adv-x="1000" />

<glyph glyph-name="035-wardrobe" unicode="&#xe839;" d="M467 783c-9 0-17-7-17-16v-67c0-9 8-17 17-17s16 8 16 17v67c0 9-7 16-16 16z m466 0c-9 0-16-7-16-16v-67c0-9 7-17 16-17s17 8 17 17v67c0 9-7 16-17 16z m-583 67h-333c-9 0-17-7-17-17v-966c0-10 8-17 17-17h333c9 0 17 7 17 17v966c0 10-8 17-17 17z m-17-967h-300v934h300v-934z m650 267h-633c-9 0-17-7-17-17v-266c0-10 8-17 17-17h633c10 0 17 7 17 17v266c0 10-7 17-17 17z m-16-267h-600v234h600v-234z m16 967h-633c-9 0-17-7-17-17v-66c0-9 8-17 17-17h633c10 0 17 8 17 17v66c0 10-7 17-17 17z m-16-67h-600v34h600v-34z m-700-416h-50c-9 0-17-8-17-17s8-17 17-17h50c9 0 16 8 16 17s-7 17-16 17z m-50 0c-9 0-17-8-17-17v-50c0-9 8-17 17-17s16 8 16 17v50c0 9-7 17-16 17z m500-334h-100c-9 0-17-7-17-16s8-17 17-17h100c9 0 16 8 16 17s-7 16-16 16z m-50 0c-9 0-17-7-17-16v-34c0-9 8-16 17-16s16 7 16 16v34c0 9-7 16-16 16z m-100 750c-9 0-17-7-17-16v-100c0-9 8-17 17-17s16 8 16 17v100c0 9-7 16-16 16z m0-166c-90 0-150-34-150-84v-33c0-9 7-17 16-17h34v-150c0-9 7-16 16-16h167c9 0 17 7 17 16v150h33c9 0 17 8 17 17v33c0 50-61 84-150 84z m116-100h-33c-9 0-17-8-17-17v-150h-133v150c0 9-7 17-17 17h-33v16c0 25 41 50 117 50s116-25 116-50v-16z m0 100c-22 0-43-2-62-7-7-1-13-8-13-16 0-8 6-14 13-16 38-8 62-26 62-45v-16h-33c-9 0-17-8-17-17v-167c0-9 8-16 17-16h117c9 0 16 7 16 16v150h34c9 0 16 8 16 17v33c0 50-60 84-150 84z m117-100h-33c-9 0-17-8-17-17v-150h-83v133h33c9 0 17 8 17 17v33c0 20-10 37-26 50 71-1 109-26 109-50v-16z m0 100c-22 0-43-2-62-7-8-1-13-8-13-16 0-8 5-14 13-16 38-8 62-26 62-45v-16h-33c-9 0-17-8-17-17v-167c0-9 8-16 17-16h116c10 0 17 7 17 16v150h33c10 0 17 8 17 17v33c0 50-60 84-150 84z m117-100h-34c-9 0-16-8-16-17v-150h-84v133h34c9 0 16 8 16 17v33c0 20-9 37-26 50 71-1 110-26 110-50v-16z m-350 166c-9 0-17-7-17-16 0-9 8-17 17-17 9 0 16-7 16-17 0-9-7-16-16-16-9 0-17-8-17-17s8-17 17-17c27 0 50 23 50 50s-23 50-50 50z m133 100c-9 0-17-7-17-16v-100c0-9 8-17 17-17s17 8 17 17v100c0 9-8 16-17 16z m0-100c-9 0-17-7-17-16 0-9 8-17 17-17 9 0 17-7 17-17 0-9-8-16-17-16-9 0-17-8-17-17s8-17 17-17c28 0 50 23 50 50s-22 50-50 50z m133 100c-9 0-16-7-16-16v-100c0-9 7-17 16-17s17 8 17 17v100c0 9-7 16-17 16z m0-100c-9 0-16-7-16-16 0-9 7-17 16-17 10 0 17-7 17-17 0-9-7-16-17-16-9 0-16-8-16-17s7-17 16-17c28 0 50 23 50 50s-22 50-50 50z m117-466h-600c-9 0-17-8-17-17v-67c0-9 8-16 17-16h600c9 0 17 7 17 16v67c0 9-8 17-17 17z m-17-67h-566v33h566v-33z m-16-67h-500c-9 0-17-7-17-16v-134c0-9 8-16 17-16h500c9 0 16 7 16 16v134c0 9-7 16-16 16z m-17-133h-467v100h467v-100z" horiz-adv-x="1000" />

<glyph glyph-name="036-receptionist" unicode="&#xe83a;" d="M969 61h-39v235a86 86 0 0 1-73 85l-130 20v37a149 149 0 0 1 72 90c12 13 37 52 37 133a92 92 0 1 1-95 147 114 114 0 0 1-15 3c-102 63-211 4-245-41-43-57-51-135-23-224a494 494 0 0 1 54-115c12-19 43-10 43 13q0 8 0 17a150 150 0 0 1 31-23v-37l-130-20a86 86 0 0 1-73-85v-235h-352a23 23 0 0 1 0-47h938a23 23 0 0 1 0 47z m-111 689a45 45 0 0 0-27-41c-8 39-27 63-45 77a45 45 0 0 0 72-36z m-339-8c15 23 70 52 111 50a135 135 0 0 0 76-24 22 22 0 0 1 13-4c43-2 72-45 70-101 0-12 0-22-1-31-7 21-17 41-33 57a91 91 0 0 1-67 28c-74 2-154-119-170-197-26 61-51 154 1 222z m169-72a45 45 0 0 0 34-14c27-27 32-89 32-114a101 101 0 0 0-187-20c26 84 88 148 121 148z m-34-250a148 148 0 0 1 26 2v-41c1-26 26-23 44-27a197 197 0 0 0-136 0c19 4 44 1 45 27v41a145 145 0 0 1 21-2z m142-80l-140-199-139 199c38-29 87-45 139-45s101 16 140 45z m-366-44a39 39 0 0 0 33 39l0 0 174-248a23 23 0 0 1 39 0l173 248 1 0a39 39 0 0 0 33-39v-235h-47v102a23 23 0 0 1-47 0v-102h-266v102a23 23 0 0 1-46 0v-102h-47z m-336-219h187a23 23 0 0 1 24 23c0 62-37 106-94 115v10a23 23 0 0 1-47 0v-10c-57-9-94-53-94-115a23 23 0 0 1 24-23z m94 93c35 0 59-17 67-47h-135c8 30 32 47 68 47z m-50 105a70 70 0 0 0 99 0 23 23 0 0 1 33 33 117 117 0 0 1-165 0 23 23 0 0 1 33-33z m-66 66a164 164 0 0 0 232 0 23 23 0 0 1 33 33 211 211 0 0 1-299 0 23 23 0 0 1 34-33z" horiz-adv-x="1000" />

<glyph glyph-name="036-wardrobe-1" unicode="&#xe83b;" d="M868-133v966c0 10-8 17-17 17h-833c-9 0-17-7-17-17v-966c0-10 8-17 17-17h833c9 0 17 7 17 17z m-100 882v-32h-130c-9 10-23 16-37 16s-28-6-37-16h-113v32z m66 0v-798h-33v798z m-383-66h100v-16h33v16h34v-9l-29-29c-3-3-5-7-5-12v-6l-90-45c-6-3-10-9-10-15v-34c0-9 8-16 17-16h217c9 0 16 7 16 16v34c0 6-4 12-10 15l-105 45 27 28c3 3 5 7 5 12v16h117v-466h-317z m250-127v-6h-183v6l84 42z m67-406h-317v33h317z m-317-33h317v-166h-36c6 17 2 36-11 49 14 15 17 36 9 54-8 18-26 29-46 29h-133c-20 0-38-11-46-29-8-18-4-39 9-54-12-13-16-32-10-49h-53z m83-84c0 10 8 17 17 17h133c10 0 17-7 17-17s-7-16-17-16h-133c-9 0-17 7-17 16z m0-66c0 9 8 16 17 16h133c8 0 15-5 17-13 1-8-3-16-10-19h-146c-6 3-11 9-11 16z m-500 782h384v-798h-384z m800 68v-34h-50c-2 0-4 0-6-1h-337c-2 1-4 1-7 1h-400v34z m-800-934v34h800v-34z m0 0m317 517h33v-100h-33z m0 0m-283 317h33v-34h-33z m0 0m0-67h33v-100h-33z m0 0" horiz-adv-x="1000" />

<glyph glyph-name="037-information" unicode="&#xe83c;" d="M500 850c-276 0-500-224-500-500 0-276 224-500 500-500s500 224 500 500c0 276-224 500-500 500z m0-909c-226 0-409 183-409 409 0 226 183 409 409 409s409-183 409-409c0-226-183-409-409-409z m0 697c-33 0-61-27-61-61 0-33 28-60 61-60 33 0 61 27 61 60 0 34-28 61-61 61z m0-212c-25 0-45-21-45-46v-272c0-25 20-46 45-46 25 0 46 21 46 46v272c0 25-21 46-46 46z" horiz-adv-x="1000" />

<glyph glyph-name="037-wardrobe-2" unicode="&#xe83d;" d="M797 834h-594a63 63 0 0 1-62-62v-781a63 63 0 0 1 47-61v-49a16 16 0 0 1 15-15h47a16 16 0 0 1 15 11l13 51h444l13-51a16 16 0 0 1 15-11h47a16 16 0 0 1 16 15v49a63 63 0 0 1 46 61v781a63 63 0 0 1-62 62z m-559-937h-19v31h27z m543 0h-19l-8 31h27z m47 94a31 31 0 0 0-31-32h-594a31 31 0 0 0-31 32v781a31 31 0 0 0 31 31h594a31 31 0 0 0 31-31z m-47 781h-562a16 16 0 0 1-16-16v-750a16 16 0 0 1 16-15h562a16 16 0 0 1 16 15v750a16 16 0 0 1-16 16z m-297-750h-250v719h250z m282 0h-250v719h250z m-344 406a47 47 0 1 1 47-47 47 47 0 0 1-47 47z m0-62a16 16 0 1 0 16 15 16 16 0 0 0-16-15z m156-32a47 47 0 1 1-47 47 47 47 0 0 1 47-47z m0 63a16 16 0 1 0-15-16 16 16 0 0 0 15 16z" horiz-adv-x="1000" />

<glyph glyph-name="038-wardrobe-3" unicode="&#xe83e;" d="M802 850h-302-302c-52 0-94-42-94-94v-755c0-52 42-94 94-94h0v-57h38v57h264 264v-57h38v57h0c52 0 94 42 94 94v755c0 52-42 94-94 94z m-604-906l0 0c-31 0-56 26-56 57v755c0 31 25 56 56 56h283v-868h-245-38z m661 57c0-31-26-57-57-57h0-38-245v868h283c31 0 57-25 57-56v-755z" horiz-adv-x="1000" />

<glyph glyph-name="039-credit-card" unicode="&#xe83f;" d="M982 661c-13 15-31 25-51 26l-704 59c-20 2-39-4-55-17-15-13-24-31-26-51l-14-133h-57c-41 0-75-34-75-75v-441c0-42 34-75 75-75h707c41 0 75 33 75 75v71l25-2c2 0 4 0 6 0 39 0 72 30 75 69l37 439c1 20-5 40-18 55z m-907-155h707c20 0 36-16 36-36v-40h-779v40c0 20 16 36 36 36z m-36-116h779v-81h-779z m743-397h-707c-20 0-36 16-36 36v241h779v-241c0-20-16-36-36-36z m179 616l-37-439c-1-20-19-34-39-33l-28 3v330c0 41-34 75-75 75h-611l14 129c0 0 0 0 0 0 1 20 19 35 39 33l704-59c10 0 18-5 24-12s10-17 9-27z m-225-397h-188c-11 0-19-8-19-19v-123c0-11 8-19 19-19h188c11 0 20 8 20 19v123c0 11-9 19-20 19z m-19-122h-149v83h149z" horiz-adv-x="1000" />

<glyph glyph-name="039-plug" unicode="&#xe840;" d="M727 827c-30 30-83 30-113 0l-213-213c-8-9-8-22 0-30 8-8 21-8 29 0l214 214c14 14 39 14 54-1 14-14 14-38 0-53l-214-213c-8-9-8-22 0-30 4-4 10-6 15-6 5 0 11 2 15 6l213 213c31 31 31 82 0 113z m250-250c-30 30-83 30-113 0l-213-213c-8-8-8-21 0-29 8-8 21-8 30 0l213 213c14 14 39 14 53 0 15-15 15-39 0-54l-212-213c-8-8-8-21 0-29 4-4 9-6 14-6s11 2 15 6l213 213c31 31 31 81 0 112z m-796-462c-8 8-21 8-29 0l-146-146c-8-8-8-21 0-29 4-4 10-6 15-6 5 0 11 2 15 6l145 145c8 9 8 22 0 30z m84-83c-9 8-22 8-30 0l-146-146c-8-8-8-22 0-30 4-4 10-6 15-6s11 2 15 6l146 146c8 8 8 21 0 30z m563 186l-460 458c-9 8-22 8-30 0l-82-82c-4-4-6-9-6-15s2-11 6-15l27-27-130-129c-43-43-67-101-67-162 0-61 24-119 67-162l81-80c44-45 103-67 162-67 58 0 117 22 162 67l129 129 27-27c8-8 21-8 29 0l85 82c4 4 6 9 6 15 0 6-2 11-6 15z m-99-68l-27 27c-8 8-22 8-30 0l-144-144c-73-73-192-73-265 0l-80 80c-36 36-55 83-55 133s19 97 55 132l144 145c8 8 8 21 0 29l-27 27 53 53 430-429-54-53z" horiz-adv-x="1000" />

<glyph glyph-name="040-pawprint" unicode="&#xe841;" d="M669 383c-45 70-122 112-205 112s-160-42-205-112l-109-170c-18-28-26-60-24-93 3-34 15-65 37-90 22-25 50-43 83-50 32-8 66-4 96 9l2 1c77 33 165 33 241-1 20-9 41-13 62-13 12 0 23 1 35 4 32 7 61 25 83 50 21 25 34 56 36 90 2 33-6 65-24 93z m0 0m-489 0c32 12 56 38 69 73 11 33 10 71-3 105-14 35-38 63-69 80-32 18-68 21-100 8-65-25-95-105-66-178 22-59 75-96 128-96 14 0 27 3 41 8z m0 0m210 132c81 0 147 75 147 168 0 92-66 167-147 167-81 0-147-75-147-167 0-93 66-168 147-168z m0 0m254-41h0c12-4 25-6 37-6 59 0 117 43 139 109 13 38 12 78-2 113-15 37-43 64-78 75-35 12-73 7-106-13-33-20-57-52-70-90-27-80 9-164 80-188z m0 0m309 20l0 0c-56 41-139 23-186-40-47-63-40-149 16-190 20-15 44-22 69-22 43 0 87 22 117 62 47 63 40 148-16 190z m0 0" horiz-adv-x="1000" />

<glyph glyph-name="040-supply" unicode="&#xe842;" d="M856 704c-196 195-513 195-708-1-139-139-182-342-118-521l0-2c44-122 201-157 293-65l28 28c74-49 176-42 242 24l109 109c8 8 12 18 12 28 0 10-4 20-12 28l-36 36 108 107c15 16 15 40 0 56-16 15-40 15-56 0l-107-108-35 35 109 109c15 15 15 40 0 55-15 16-40 16-55 0l-109-109-36 36c-16 16-40 16-56 0l-109-108c-65-66-74-168-24-243l-28-28c-50-50-139-34-164 36l-1 2c-53 150-18 322 100 440 165 165 432 165 597 1 165-165 166-434 1-599-121-121-293-151-440-100-20 8-43-3-50-24-7-20 4-42 24-49 174-62 379-25 521 118 196 196 195 514 0 709z m-480-319l81 81 162-162-81-81c-45-45-117-45-162 0-45 45-45 117 0 162z m0 0" horiz-adv-x="1000" />

<glyph glyph-name="041-plug-1" unicode="&#xe843;" d="M965 82c47 46 47 121 0 166-46 47-121 47-166 0l-63-62c-17-17-46-17-63 0l-112 112c-7 7-16 11-26 11-10 0-19-4-26-11-30-31-71-48-114-48-44 0-85 17-115 48l-101 101 229 229 101-101c28-28 45-65 47-105 1-20 18-35 37-35 1 0 1 0 2 0 20 1 36 19 35 39-4 58-28 112-69 153l-101 101 11 11c14 15 14 38 0 52-14 15-37 15-52 0l-72-72-125 125c-14 14-37 14-52 0-14-14-14-37 0-52l125-125-107-107-125 125c-14 14-38 14-52 0-15-15-15-38 0-52l125-125-72-72c-14-14-14-38 0-52 7-7 16-11 26-11 9 0 18 4 26 11l11 11 101-101c45-45 104-69 167-69 50 0 98 16 138 45l88-88c23-23 53-34 83-34s61 11 84 34l63 63c17 17 45 17 63 0s17-46 0-63l-63-63c-22-22-34-52-34-84s12-61 34-83c7-7 17-11 26-11 9 0 19 4 26 11 14 14 14 38 0 52-9 8-13 20-13 31s4 24 13 32l62 63z" horiz-adv-x="1000" />

<glyph glyph-name="042-cancel" unicode="&#xe844;" d="M854 704c-95 94-220 146-354 146s-259-52-353-146-147-220-147-354 52-259 147-354 219-146 353-146 259 52 354 146 146 220 146 354-52 259-146 354z m-41-667c-83-84-195-130-313-130s-230 46-313 130c-173 172-173 454 0 626 83 84 195 130 313 130s230-46 313-130c173-172 173-454 0-626z m-93 533c-11 12-29 12-40 0l-180-180-180 180c-11 12-29 12-40 0-11-11-11-29 0-40l180-180-180-180c-11-11-11-29 0-40 5-6 13-9 20-9s14 3 20 9l180 180 180-180c5-6 13-9 20-9 7 0 14 3 20 9 11 11 11 29 0 40l-180 180 180 180c12 11 12 29 0 40z" horiz-adv-x="1000" />

<glyph glyph-name="043-calendar" unicode="&#xe846;" d="M912 733h-91c-3 25-10 48-19 67-16 32-40 50-68 50s-51-18-67-50c-10-19-16-42-19-67h-62c-3 25-9 48-18 67-17 32-41 50-68 50s-51-18-68-50c-9-19-15-42-18-67h-62c-3 25-9 48-19 67-16 32-40 50-67 50s-52-18-68-50c-9-19-16-42-19-67h-91c-49 0-88-40-88-88v-707c0-49 39-88 88-88h824c49 0 88 39 88 88v707c0 48-39 88-88 88z m-193 40c8 15 14 18 15 18s8-3 16-18c5-11 9-25 12-40h-55c3 15 7 29 12 40z m-234 0c7 15 14 18 15 18s8-3 15-18c6-11 10-25 12-40h-54c2 15 6 29 12 40z m-235 0c8 15 15 18 16 18s7-3 15-18c5-11 10-25 12-40h-54c2 15 6 29 11 40z m-162-99h205c-2-15-7-29-12-40-8-15-14-18-15-18-17 0-30-13-30-30s13-29 30-29c27 0 51 18 67 51 10 18 16 41 19 66h175c-2-15-6-29-12-40-7-15-14-18-15-18-16 0-29-13-29-30s13-29 29-29c27 0 51 18 68 51 9 18 15 41 18 66h176c-3-15-7-29-12-40-8-15-15-18-16-18-16 0-29-13-29-30s13-29 29-29c28 0 52 18 68 51 9 18 16 41 19 66h91c16 0 29-13 29-29v-148h-882v148c0 16 13 29 29 29z m824-765h-824c-16 0-29 13-29 29v500h882v-500c0-16-13-29-29-29z m0 0m-60 470h-704c-16 0-29-13-29-29v-354c0-16 13-29 29-29h704c16 0 29 13 29 29v354c0 16-13 29-29 29z m-30-175h-117v117h117z m-351-59v-119h-117v119z m-117 59v117h117v-117z m175-59h118v-119h-118z m0 59v117h118v-117z m-234 117v-117h-117v117z m-117-176h117v-119h-117z m527-119v119h117v-119z m0 0" horiz-adv-x="1000" />

<glyph glyph-name="044-no-smoking-2" unicode="&#xe848;" d="M140 661c4 0 8 2 11 5 44 48 96 86 155 113 61 28 126 42 194 42 98 0 193-31 273-88 7-5 16-3 20 4 5 6 4 15-3 20-85 61-185 93-290 93-72 0-141-15-206-44-63-29-118-69-165-120-5-6-5-16 1-21 3-2 7-4 10-4z m816-108c-27 62-66 117-116 163-6 6-15 5-21 0-5-6-5-16 1-21 47-44 84-95 110-154 26-60 40-124 40-191 0-125-49-243-138-332-89-89-207-138-332-138s-244 49-333 138c-89 89-138 207-138 332 0 97 29 190 84 269 5 6 3 15-3 20-7 5-16 3-21-4-58-84-89-182-89-285 0-133 52-258 146-353 95-94 220-146 354-146s259 52 353 146c94 95 146 220 146 353 0 71-14 139-43 203z m-631-337c6-5 15-4 20 3l357 440c5 7 7 15 6 22-2 8-7 15-14 19-58 33-125 50-192 50-107 1-208-40-284-115-75-74-117-174-118-281-1-98 34-193 99-267 5-6 12-9 20-9 0 0 0 0 0 0 8 0 16 4 21 10l66 82c5 6 4 16-2 21-6 5-16 4-21-3l-64-79c-59 68-91 154-90 244 1 100 40 192 110 262 70 69 163 107 262 106 62 0 123-16 177-45l-355-439c-6-6-5-16 2-21z m435 397l-463-571c-5-7-7-15-5-23 1-7 6-14 13-18 59-33 126-51 195-51 86 0 168 27 237 79 68 50 118 119 143 199 3 8-1 16-9 18-8 3-16-1-18-9-24-74-70-138-133-185-64-47-140-72-220-72-63 0-124 15-178 45l459 567c38-45 66-99 80-157 1-8 9-13 17-11 8 2 13 10 11 18-15 63-45 122-88 171-5 7-13 10-21 10-8 0-15-4-20-10z m-571-255v-45c0-20 17-37 37-37h84c8 0 14 7 14 15s-6 15-14 15h-25v59h97c8 0 14 7 14 15s-6 15-14 15h-156c-20 0-37-17-37-37z m67-52h-30c-4 0-7 3-7 7v45c0 4 3 7 7 7h30z m337 0c-8 0-14-7-14-15s6-15 14-15h308c20 0 37 17 37 37v45c0 20-17 37-37 37h-236c-8 0-14-7-14-15s6-15 14-15h18v-59z m316 52v-45c0-4-4-7-8-7h-122v59h122c4 0 8-3 8-7z m-197 7h38v-59h-38z m-427 80v-17c0-8 7-14 15-14s15 6 15 14v17c0 21 17 38 37 38h103c36 0 66 30 66 66s-30 65-66 65h-81c-8 0-15-6-15-14s7-15 15-15h81c20 0 36-16 36-36s-16-37-36-37h-103c-37 0-67-30-67-67z m-53 9v-26c0-8 7-14 15-14s14 6 14 14v26c0 43 35 78 78 78h25c8 0 15 6 15 14s-7 15-15 15h-25c-59 0-107-48-107-107z m194 78c8 0 14 6 14 14s-6 15-14 15h-9c-8 0-15-6-15-15s7-14 15-14z" horiz-adv-x="1000" />

<glyph glyph-name="045-table-etiquette" unicode="&#xe84a;" d="M985 704c-56 0-102-46-102-103v-275c0-3 0-5 1-7l28-55v-224c0-24 20-44 44-44s44 20 44 44v649c0 8-7 15-15 15z m-14-664c0-8-7-14-15-14s-15 6-15 14v227c0 2 0 5-1 7l-28 55v272c0 35 25 65 59 72z m-471 664c-195 0-353-159-353-354s158-354 353-354 354 159 354 354-159 354-354 354z m0-678c-179 0-324 145-324 324s145 324 324 324 324-145 324-324-145-324-324-324z m0 560c-52 0-102-16-144-48-6-5-7-14-2-21 5-6 14-7 20-2 37 27 80 42 126 42 114 0 207-93 207-207s-93-207-207-207-207 93-207 207c0 46 15 89 43 126 5 6 3 15-3 20-7 5-16 4-21-2-31-42-48-92-48-144 0-130 106-236 236-236s236 106 236 236-106 236-236 236z m0-414c98 0 178 80 178 178s-80 178-178 178-178-80-178-178 80-178 178-178z m0 326c82 0 148-66 148-148s-66-148-148-148-148 66-148 148 66 148 148 148z m-353 191c0 8-7 15-15 15s-15-7-15-15v-103h-29v103c0 8-7 15-15 15s-14-7-14-15v-103h-30v103c0 8-6 15-14 15s-15-7-15-15v-177c0-15 4-31 11-45l18-37v-390c0-24 20-44 44-44s44 20 44 44v390l19 37c7 14 11 30 11 45z m-37-209l-21-40c-1-2-1-5-1-7v-393c0-8-7-14-15-14s-14 6-14 14v393c0 2-1 5-2 7l-20 40c-5 10-8 21-8 32v45h88v-45c0-11-2-22-7-32z" horiz-adv-x="1000" />

<glyph glyph-name="047-fridge-2" unicode="&#xe84c;" d="M833 687c8 0 15 6 15 14v94c0 30-25 55-55 55h-586c-30 0-55-25-55-55v-829c0-30 25-55 55-55h10v-27c0-19 16-34 35-34h41c19 0 35 15 35 34v27h344v-27c0-19 16-34 35-34h41c19 0 35 15 35 34v27h10c30 0 55 25 55 55v667c0 8-7 15-15 15-8 0-15-7-15-15v-119h-416c-9 0-15-7-15-15s6-15 15-15h416v-518c0-14-11-26-25-26h-586c-14 0-25 12-25 26v518h151c8 0 15 7 15 15s-7 15-15 15h-151v281c0 14 11 26 25 26h586c14 0 25-12 25-26v-94c0-8 7-14 15-14z m-535-803c0-2-2-5-5-5h-41c-3 0-5 3-5 5v27h51z m455 0c0-2-2-5-5-5h-41c-3 0-5 3-5 5v27h51z m-534 852v-137c0-23 18-42 41-42s42 19 42 42v137c0 22-19 41-42 41s-41-19-41-41z m54 0v-137c0-7-6-12-13-12s-12 5-12 12v137c0 6 6 12 12 12s13-6 13-12z m-54-327v-137c0-23 18-42 41-42s42 19 42 42v137c0 22-19 41-42 41s-41-19-41-41z m54 0v-137c0-7-6-12-13-12s-12 5-12 12v137c0 6 6 12 12 12s13-6 13-12z" horiz-adv-x="1000" />

<glyph glyph-name="048-coffee-cup" unicode="&#xe84d;" d="M937 13h-141c-8 0-15-7-15-15 0-8 7-14 15-14h126v-9l-213-40h-427l-214 40v9h58c1 0 1 0 1 0 0 0 0 0 0 0h52c0 0 0 0 0 0 0 0 1 0 1 0h175c0 0 0 0 0 0 0 0 0 0 0 0h53c0 0 0 0 0 0s0 0 0 0h175c0 0 0 0 0 0s0 0 0 0h158c8 0 15 6 15 14 0 8-7 15-15 15h-94c17 11 34 24 48 39 21 21 39 45 52 71 19-8 38-11 59-11 85 0 155 69 155 155 0 86-70 156-155 156-10 0-19-1-28-3v9c0 18-15 34-34 34h-69c-8 0-15-7-15-15 0-8 7-15 15-15h69c3 0 5-2 5-4v-25h-507v25c0 2 2 4 5 4h373c8 0 15 7 15 15 0 8-7 15-15 15h-373c-19 0-34-16-34-34v-177c0-22 2-44 7-66-24 8-52 2-78-16-7-4-8-13-4-20 5-7 14-8 21-4 17 12 34 16 49 13l-53-80c-5-6-3-15 4-20 2-2 5-2 8-2 5 0 9 2 12 6l54 80c5-8 8-19 8-31 0 0 0 0 0 0 0 0 0-1 0-1 0-19-6-40-19-58-7-11-15-20-25-28-6-5-13-9-20-12h-47c0 0-1 1-1 1-25 16-26 58-4 96 4 7 2 16-5 20-7 4-16 2-20-5-14-24-21-51-20-75 1-14 5-26 11-37h-37c-8 0-15-7-15-15v-35c0-7 5-13 12-14l215-41v-43c0-8 7-15 15-15h429c8 0 14 7 14 15v43l216 41c7 1 12 7 12 14v35c0 8-7 15-15 15z m-159 239v69h0c8 4 18 7 28 7 33 0 60-27 60-61s-27-60-60-60c-11 0-21 2-30 8 1 12 2 24 2 37z m-8-67c11-5 23-8 36-8 49 0 89 41 89 90s-40 90-89 90c-10 0-19-1-28-4v36c0 0 0 0 0 0s0 0 0 0v1c9 2 18 3 28 3 69 0 126-56 126-126 0-69-57-126-126-126-17 0-32 3-47 9 4 11 8 23 11 35z m-528 189h507v-45c0 0 0 0 0 0v-77c0-68-27-132-74-179-27-27-59-47-95-60h-170c-5 2-9 4-14 6 11 16 15 35 11 53 0 0 0 0 0 0 0 0 0 0 0 0-4 24-21 43-46 54-24 11-53 14-81 8-3 0-6-1-8-2-20 37-30 78-30 120v122z m5-338c13 21 21 43 23 65 5 2 10 3 15 4 38 8 74-3 88-25l-94-18c-8-2-13-10-12-18 2-7 8-11 15-11 0 0 1 0 2 0l95 19c-2-10-8-20-16-29 0 0 0 0 0 0-4-3-8-7-12-10h-124c7 7 14 15 20 23z m448-157h-399v27h399v-27z m-162 678c0 0 0 0 0 0 0 0 0 0 0 0z m0 0c-1 0-1 0 0 0l0 0z m32 133c20 19 31 45 31 73 0 34-17 66-47 85-7 4-16 2-20-5-4-7-2-16 5-20 20-13 33-36 33-60 0-25-13-47-33-60-9-6-9-20 0-25 20-13 33-36 33-60 0-25-13-48-33-61 0 0 0 0-1 0 1 0 1 0 1 0-7-4-9-13-5-20 3-4 8-7 12-7 3 0 6 1 8 3 30 18 47 50 47 85 0 27-11 53-31 72z m-24-128c1 0 1 0 0 0l0 0z m-2-1c1 0 1 0 1 0 0 0 0 0-1 0z m113 142c-7 4-16 2-20-5-4-7-2-16 5-20 21-13 33-36 33-60 0-25-12-48-33-61-7-4-9-13-5-20 3-4 8-7 13-7 2 0 5 1 7 3 30 18 47 50 47 85s-17 66-47 85z m-214 0c-7 4-16 2-20-5-5-7-3-16 4-20 21-13 33-36 33-60 0-25-12-48-33-61-7-4-9-13-4-20 2-4 7-7 12-7 3 0 5 1 8 3 29 18 47 50 47 85 0 34-18 66-47 85z" horiz-adv-x="1000" />

<glyph glyph-name="049-coffee-cup-1" unicode="&#xe84e;" d="M771 454h-583c-35 0-63-28-63-62v-42c0-149 82-283 214-352 11-5 23-1 28 9 6 10 2 23-9 28-118 61-191 182-191 315v42c0 11 9 21 21 21h583c11 0 21-10 21-21v-42c0-133-74-254-192-315-10-5-14-18-9-28 4-7 11-11 18-11 4 0 7 1 10 2 132 69 214 203 214 352v42c0 34-28 62-62 62z m186-429c-3 8-11 13-19 13h-917c-9 0-16-5-19-13-4-8-2-17 4-23l47-47c27-27 64-43 103-43h646c39 0 76 16 104 43l46 47c6 6 8 15 5 23z m-81-40c-20-20-46-31-74-31h-646c-28 0-54 11-74 31l-11 11h816l-11-11z m84 371c-56 36-146-3-156-8-11-5-15-17-10-27 4-11 17-16 27-11 20 9 85 31 116 11 14-9 21-27 21-54 0-84-168-134-233-147l-15-2c-11-3-18-14-16-25 2-10 11-17 20-17 2 0 3 0 4 1l15 3c11 2 267 52 267 187 0 42-14 72-40 89z m-319 273c34 42 34 108 0 151-7 9-20 10-29 3-9-7-10-20-3-29 21-27 21-72 0-99-34-43-34-109 0-151 4-5 10-8 16-8 5 0 9 1 13 4 9 8 11 21 3 30-21 27-21 72 0 99z m-125 0c34 42 34 108 0 151-7 9-20 10-29 3-9-7-11-20-3-29 21-27 21-72 0-99-34-43-34-109 0-151 4-5 10-8 16-8 4 0 9 1 13 4 9 8 10 21 3 30-21 27-21 72 0 99z m-125 0c34 42 34 108 0 151-7 9-20 10-29 3-9-7-10-20-3-29 21-27 21-72 0-99-34-43-34-109 0-151 4-5 10-8 16-8 5 0 9 1 13 4 9 8 11 21 3 30-21 27-21 72 0 99z" horiz-adv-x="1000" />

<glyph glyph-name="050-coffee-cup-2" unicode="&#xe84f;" d="M981 447h-161v41c0 11-8 20-19 20h-422c-11 0-20-9-20-20 0-11 9-19 20-19h402v-150c0-132-70-254-183-321h-375c-114 67-184 189-184 321v150h131c11 0 20 8 20 19 0 11-9 20-20 20h-150c-11 0-20-9-20-20v-169c0-74 20-146 57-210 26-42 59-80 97-111h-134c-11 0-20-8-20-19 0-71 58-129 129-129h609c71 0 129 58 129 129 0 11-9 19-19 19h-182c36 29 66 63 91 101h55c104 0 188 85 188 189v139c0 11-9 20-19 20z m-155-488c-9-40-45-70-88-70h-609c-43 0-79 30-88 70h177 385 223z m-6 360v11h63v-42c0-40-32-71-71-71h-5c9 33 13 67 13 102z m141-31c0-83-67-150-149-150h-33c6 13 11 26 16 40h17c61 0 110 49 110 110v61c0 11-9 20-20 20h-82v39h141v-120z m-532 454l-10 13c-15 18-15 45 0 63 6 9 5 21-4 28-8 7-20 5-27-3-26-33-26-80 0-113l10-12c20-25 20-59 0-84l-10-13c-7-8-5-20 3-27 4-3 8-4 12-4 6 0 12 2 16 7l10 13c31 39 31 93 0 132z m108-44l-10 13c-15 19-15 45 0 63 7 9 5 21-3 28-9 7-21 5-28-3-26-33-26-80 0-113l11-12c19-25 19-59 0-83l-11-14c-6-8-5-20 3-27 4-3 8-4 13-4 5 0 11 2 15 7l10 13c31 39 31 93 0 132z m-216 0l-11 13c-14 19-15 45 0 63 7 9 6 21-3 28-8 7-21 5-27-3-26-33-26-80 0-113l10-12c20-25 20-59 0-83l-10-14c-7-8-6-20 3-27 3-3 8-4 12-4 6 0 11 2 15 7l11 13c31 39 30 93 0 132z m-27-196c-4 4-9 6-14 6s-10-2-14-6c-4-4-6-9-6-14s2-10 6-14c4-3 9-5 14-5s10 2 14 5c3 4 5 9 5 14 0 5-2 10-5 14z m413-164c-11 0-19-8-19-19 0-73-30-144-81-196-8-7-8-20 0-27 4-4 9-6 14-6 5 0 10 2 14 6 58 59 92 140 92 223 0 11-9 19-20 19z m-133-268c-5 10-17 13-27 8l0-1c-9-5-13-17-7-26 3-6 10-10 17-10 3 0 6 1 9 2l1 1c9 5 12 17 7 26z" horiz-adv-x="1000" />

<glyph glyph-name="051-bouilloire" unicode="&#xe850;" d="M188 784v9c0 32 25 57 57 57h351c31 0 57-25 57-57v-9c0-10-8-18-18-18s-17 8-17 18v9c0 12-10 22-22 22h-351c-12 0-22-10-22-22v-9c0-10-8-18-17-18s-18 8-18 18z m129-545v234c0 55 45 100 100 100s99-45 99-100v-234c0-55-45-100-99-100s-100 45-100 100z m35 0c0-36 29-65 65-65s64 29 64 65h-23c-10 0-18 8-18 17s8 18 18 18h23v64h-43c-10 0-18 8-18 18s8 17 18 17h43v65h-23c-10 0-18 8-18 18s8 17 18 17h23c0 36-29 65-64 65s-65-29-65-65z m535 348v-322c0-26-12-50-34-65-106-75-99-72-107-72-17 0-24 22-10 32l97 69c12 8 19 22 19 36v322c0 25-20 45-45 45v-368c0-10-8-17-17-17s-18 7-18 17v368h-68v-643c0-45-36-80-80-80h-415c-44 0-80 35-80 80v565l-73 162c-5 11 3 25 16 25h567c36 0 65-29 65-65v-9h103c44 0 80-35 80-80z m-219-598v41h-443c-10 0-17 8-17 17s7 18 17 18h443v611c0 16-13 30-29 30h-540c70-153 66-143 66-148v-569c0-25 20-45 44-45h415c24 0 44 20 44 45z" horiz-adv-x="1000" />

<glyph glyph-name="053-bouilloire-electrique" unicode="&#xe852;" d="M922 616a141 141 0 0 1-141 140h-159c-33 38-102 63-184 63-110 0-196-45-203-103-16-16-30-40-42-69h-99a16 16 0 0 1-15-21l63-157a16 16 0 0 1 2-4c-28-162-34-337-35-349 0 0 0 0 0 0s0 0 0 0a109 109 0 0 1 50-92 141 141 0 0 1-81-127 16 16 0 0 1 16-16h687a16 16 0 0 1 16 16 141 141 0 0 1-81 127 109 109 0 0 1 50 92c0 0 0 0 0 0s0 0 0 0c0 4-1 21-2 47h17a141 141 0 0 1 141 140z m-484 172c87 0 151-31 167-63h-335c16 32 80 63 168 63z m-321-172h64a870 870 0 0 1-26-96z m648-704h-654a110 110 0 0 0 108 94h437a110 110 0 0 0 109-94z m-109 126h-437a78 78 0 0 0-77 62h591a78 78 0 0 0-77-62z m-515 93c2 38 7 137 21 243 16 122 36 200 55 250a15 15 0 0 1 1 3c13 34 27 55 38 67h363c29-30 67-111 94-320 14-106 19-205 21-243z m562 457c0 0 0 1 0 1v27a47 47 0 0 0 47 47h31a47 47 0 0 0 47-47v-313a47 47 0 0 0-47-47h-24c-8 99-24 231-54 332z m188-285a110 110 0 0 0-110-109h-19c-1 10-2 20-2 31h21a78 78 0 0 1 78 78v313a78 78 0 0 1-78 78h-31a78 78 0 0 1-69-43c-12 27-26 50-41 65a63 63 0 0 1-2 9h143a110 110 0 0 0 110-109z m-407-328h-93a16 16 0 0 1 0-31h93a16 16 0 0 1 0 31z" horiz-adv-x="1000" />

<glyph glyph-name="054-four-micro-onde" unicode="&#xe853;" d="M917 733h-834c-46 0-83-37-83-83v-533c0-26 12-51 33-67v-83h100v66h734v-66h100v83c21 16 33 41 33 67v533c0 46-37 83-83 83z m-817-733h-33v33h33v-33z m833 0h-33v33h33v-33z m34 117c0-28-23-50-50-50h-834c-27 0-50 22-50 50v533c0 28 23 50 50 50h834c27 0 50-22 50-50v-533z m-867 166v-150h600v500h-600v-350z m33 317h534v-317h-534v317z m0-350h534v-83h-534v83z m700 383c-46 0-83-37-83-83s37-83 83-83c46 0 84 37 84 83 0 46-38 83-84 83z m48-100c-8-20-26-33-48-33-27 0-50 22-50 50 0 21 14 40 34 47v-47h33v47c26-9 40-38 31-64z m-48-100c-46 0-83-37-83-83s37-83 83-83c46 0 84 37 84 83 0 46-38 83-84 83z m48-100c-8-20-26-33-48-33-27 0-50 22-50 50 0 21 14 40 34 47v-47h33v47c26-9 40-38 31-64z" horiz-adv-x="1000" />

<glyph glyph-name="055-four-micro-onde-1" unicode="&#xe854;" d="M956 730h-677c-8 0-14-7-14-15s6-14 14-14h677c8 0 15-7 15-15v-608c0-8-7-14-15-14h-912c-8 0-15 6-15 14v608c0 8 7 15 15 15h177c8 0 14 6 14 14s-6 15-14 15h-177c-24 0-44-20-44-44v-608c0-24 20-44 44-44h8v-36c0-15 13-28 28-28h34c8 0 14 7 14 15s-6 14-14 14h-32v35h837v-35h-747c-8 0-14-6-14-14s6-15 14-15h748c15 0 28 13 28 28v36h8c24 0 44 20 44 44v608c0 24-20 44-44 44z m-451-595c0-8 7-15 15-15h137c18 0 32 15 32 32v466c0 18-14 32-32 32h-556c-18 0-32-14-32-32v-466c0-17 14-32 32-32h360c8 0 15 7 15 15s-7 15-15 15h-360c-2 0-3 1-3 2v466c0 2 1 3 3 3h556c2 0 3-1 3-3v-466c0-1-1-2-3-2h-137c-8 0-15-7-15-15z m327 352c39 0 72 32 72 72s-33 72-72 72c-40 0-72-33-72-72s32-72 72-72z m0 114c23 0 42-19 42-42 0-24-19-43-42-43-24 0-43 19-43 43 0 23 19 42 43 42z m0-297c39 0 72 33 72 72s-33 72-72 72c-40 0-72-32-72-72s32-72 72-72z m0 115c23 0 42-19 42-43s-19-42-42-42c-24 0-43 19-43 42 0 24 19 43 43 43z m-88-204v-35c0-22 18-40 40-40h109c22 0 40 18 40 40v35c0 22-18 40-40 40h-109c-22 0-40-18-40-40z m160 0v-35c0-6-5-11-11-11h-40v57h40c6 0 11-5 11-11z m-131 0c0 6 5 11 11 11h40v-57h-40c-6 0-11 5-11 11z m-157 137v69c0 8-7 15-15 15-8 0-15-7-15-15v-69c0-8 7-14 15-14 8 0 15 6 15 14z" horiz-adv-x="1000" />

<glyph glyph-name="056-four-micro-onde-2" unicode="&#xe855;" d="M943 717h-886c-32 0-57-26-57-57v-620c0-31 25-57 57-57h886c32 0 57 26 57 57v620c0 31-25 57-57 57z m18-677c0-10-8-17-18-17h-886c-10 0-18 7-18 17v620c0 10 8 18 18 18h886c10 0 18-8 18-18z m-204 559h-620c-11 0-20-8-20-19v-460c0-11 9-19 20-19h620c11 0 20 8 20 19v460c0 11-9 19-20 19z m-601-459v420h581v-128h-45c0 0-1 0-1 0v62c0 11-9 19-20 19h-448c-11 0-20-8-20-19v-288c0-11 9-19 20-19h448c11 0 20 8 20 19v49c0 0 1 0 1 0h45v-115z m581 154h-45c-10 0-19 9-19 19v60c0 11 9 20 19 20h45z m-85 121c-11-10-18-25-18-42v-60c0-16 7-31 18-41v-46h-410v248h410z m221-190c-34 0-61-28-61-62s27-61 61-61 62 28 62 61c0 34-28 62-62 62z m0-84c-12 0-22 10-22 22s10 23 22 23c13 0 23-10 23-23 0-12-10-22-23-22z m0 255c-34 0-61-28-61-62s27-61 61-61 62 27 62 61-28 62-62 62z m0-84c-12 0-22 10-22 22s10 23 22 23c13 0 23-10 23-23s-10-22-23-22z m42 190h-84c-10 0-19-9-19-20s9-19 19-19h84c11 0 20 9 20 19s-9 20-20 20z" horiz-adv-x="1000" />

<glyph glyph-name="057-oven" unicode="&#xe856;" d="M953 819h-906a16 16 0 0 1-16-16v-906a16 16 0 0 1 16-16h906a16 16 0 0 1 16 16v906a16 16 0 0 1-16 16z m-15-907h-875v688h875z m0 719h-875v157h875z m-563 32h250a16 16 0 0 1 16 15v63a16 16 0 0 1-16 15h-250a16 16 0 0 1-16-15v-63a16 16 0 0 1 16-15z m16 62h218v-31h-218z m-235-62a47 47 0 1 1-47 46 47 47 0 0 1 47-46z m0 62a16 16 0 1 0-15-16 16 16 0 0 0 15 16z m125-62a47 47 0 1 1-47 46 47 47 0 0 1 47-46z m0 62a16 16 0 1 0-15-16 16 16 0 0 0 15 16z m438-62a47 47 0 1 1-47 46 47 47 0 0 1 47-46z m0 62a16 16 0 1 0-16-16 16 16 0 0 0 16 16z m125-62a47 47 0 1 1-47 46 47 47 0 0 1 47-46z m0 62a16 16 0 1 0-16-16 16 16 0 0 0 16 16z m-16-281h-656a16 16 0 0 1-16-16v-406a16 16 0 0 1 16-16h656a16 16 0 0 1 16 16v406a16 16 0 0 1-16 16z m-15-406h-625v375h625z m-579 31h532a16 16 0 0 1 0 31h-532a16 16 0 0 1 0-31z m-109 469h750a16 16 0 0 1 0 31h-750a16 16 0 0 1 0-31z" horiz-adv-x="1000" />

<glyph glyph-name="058-oven-1" unicode="&#xe857;" d="M156-25h688a16 16 0 0 1 15 16v562a16 16 0 0 1-15 16h-688a16 16 0 0 1-15-16v-562a16 16 0 0 1 15-16z m94 563h500a16 16 0 0 0 0-32h-500a16 16 0 0 0 0 32z m-78 0h34a47 47 0 0 1 44-63h500a47 47 0 0 1 44 63h34v-469h-109v65a47 47 0 0 1-16 91h-24a140 140 0 0 1-116 63h-125a141 141 0 0 1-117-63h-24a47 47 0 0 1-16-91v-65h-109z m125-375a16 16 0 0 0 0 31h406a16 16 0 0 0 0-31z m391-32v-62h-375v62z m-327 94a110 110 0 0 0 77 31h125a109 109 0 0 0 76-31z m-189-187h656v-32h-656z m742 781h-828a55 55 0 0 1-55-55v-828a55 55 0 0 1 55-55h828a55 55 0 0 1 55 55v828a55 55 0 0 1-55 55z m24-883a24 24 0 0 0-24-24h-828a24 24 0 0 0-23 24v664h875z m0 695h-875v133a24 24 0 0 0 23 24h828a24 24 0 0 0 24-24z m-438 125a47 47 0 1 1 47-47 47 47 0 0 1-47 47z m0-62a16 16 0 1 0 16 15 16 16 0 0 0-16-15z m-156 62a47 47 0 1 1 47-47 47 47 0 0 1-47 47z m0-62a16 16 0 1 0 15 15 16 16 0 0 0-15-15z m312 62a47 47 0 1 1 47-47 47 47 0 0 1-47 47z m0-62a16 16 0 1 0 16 15 16 16 0 0 0-16-15z m-164-360a16 16 0 0 1 31 0 56 56 0 0 1-10 34c-3 5-5 8-5 16s2 11 5 16a56 56 0 0 1 10 33 16 16 0 0 1-31 0c0-7-2-11-5-16a59 59 0 0 1 0-66c3-6 5-9 5-17z m86 0a16 16 0 0 1 31 0 56 56 0 0 1-10 34c-3 5-5 8-5 16s2 11 5 16a56 56 0 0 1 10 33 16 16 0 0 1-31 0c0-7-2-11-5-16a59 59 0 0 1 0-66c3-6 5-9 5-17z m-172 0a16 16 0 0 1 32 0 56 56 0 0 1-11 34c-3 5-5 8-5 16s2 11 5 16a56 56 0 0 1 11 33 16 16 0 0 1-32 0c0-7-2-11-5-16a59 59 0 0 1 0-66c3-6 5-9 5-17z" horiz-adv-x="1000" />

<glyph glyph-name="060-small-oven" unicode="&#xe858;" d="M880 850h-760c-38 0-68-30-68-68v-795c0-37 30-68 68-68h1v-36c0-18 15-33 33-33h35c18 0 34 15 34 33v36h555v-36c0-18 15-33 33-33h35c18 0 33 15 33 33v36h1c38 0 68 31 68 68v795c0 38-30 68-68 68z m-760-32h760c20 0 36-16 36-36v-174h-832v174c0 20 16 36 36 36z m70-935c0 0 0-1-1-1h-35c0 0-1 1-1 1v36h37v-36z m657 0c0 0-1-1-1-1h-35c-1 0-1 1-1 1v36h37v-36z m33 68h-760c-20 0-36 16-36 36v589h832v-589c0-20-16-36-36-36z m-449 746h3c7-30 34-52 66-52s59 22 66 52h3c9 0 16 7 16 16s-7 16-16 16h-3c-7 30-34 52-66 52s-59-22-66-52h-3c-9 0-16-7-16-16s7-16 16-16z m69-20c-14 0-26 8-32 20h64c-6-12-18-20-32-20z m0 72c14 0 26-8 32-20h-64c6 12 18 20 32 20z m164-74c-6-6-6-16 0-22 4-4 8-5 12-5s8 1 11 5l2 2c11-7 23-10 36-10 17 0 35 7 48 20 22 22 26 57 10 83l2 2c6 7 6 17 0 23-6 7-17 7-23 0l-2-2c-26 16-61 13-83-10-23-23-26-57-10-83l-3-3z m86 13c-10-10-24-13-36-9l45 45c4-12 1-27-9-36z m-51 50c7 7 17 11 26 11 3 0 7-1 11-2l-45-45c-4 12-1 26 8 36z m-472-73c14-13 31-20 48-20 13 0 25 3 36 10l2-2c3-4 7-5 11-5 4 0 9 1 12 5 6 6 6 16 0 22l-2 3c15 26 12 60-10 83-23 23-58 26-84 10l-2 2c-6 7-17 7-23 0-6-6-6-16 0-23l2-2c-16-26-12-61 10-83z m23 23c-10 9-12 24-8 36l44-45c-12-4-26-1-36 9z m25 61c10 0 19-4 26-11 9-10 12-24 8-36l-45 45c4 1 8 2 11 2z m519-245h-588c-28 0-50-22-50-50v-380c0-28 22-51 50-51h588c28 0 51 23 51 51v380c0 28-23 50-51 50z m18-430c0-11-8-19-18-19h-588c-10 0-18 8-18 19v380c0 10 8 18 18 18h588c10 0 18-8 18-18v-380z m-174 361h-276c-9 0-16-7-16-16v-17c0-28 22-51 50-51h208c28 0 50 23 50 51v17c0 9-7 16-16 16z m-16-33c0-10-8-18-18-18h-208c-10 0-18 8-18 18v1h244v-1z" horiz-adv-x="1000" />

<glyph glyph-name="059-microwave" unicode="&#xe859;" d="M950 850h-900c-28 0-50-22-50-50v-667c0-27 22-50 50-50h50v-50c0-9 8-16 17-16h100c9 0 16 7 16 16v50h534v-50c0-9 7-16 16-16h100c10 0 17 7 17 16v50h50c28 0 50 23 50 50v667c0 28-22 50-50 50z m-750-800h-67v33h67z m667 0h-67v33h67z m100 83c0-9-8-16-17-16h-900c-9 0-17 7-17 16v667c0 9 8 17 17 17h900c9 0 17-8 17-17z m0 0m-217 617h-600c-28 0-50-22-50-50v-467c0-27 22-50 50-50h600c28 0 50 23 50 50v467c0 28-22 50-50 50z m17-517c0-9-8-16-17-16h-600c-9 0-17 7-17 16v467c0 9 8 17 17 17h600c9 0 17-8 17-17z m0 0m116 417c-27 0-50-22-50-50s23-50 50-50 50 22 50 50-22 50-50 50z m0-67c-9 0-16 8-16 17s7 17 16 17 17-8 17-17-7-17-17-17z m0 0m0-66c-27 0-50-23-50-50s23-50 50-50 50 22 50 50-22 50-50 50z m0-67c-9 0-16 8-16 17s7 16 16 16 17-7 17-16-7-17-17-17z m0 0m0-67c-27 0-50-22-50-50s23-50 50-50 50 23 50 50-22 50-50 50z m0-66c-9 0-16 7-16 16s7 17 16 17 17-7 17-17-7-16-17-16z m0 0m-50 400h100v-34h-100z m0 0m-116-34h-67v-33h50v-50h33v67c0 9-7 16-16 16z m0 0m-17-116h33v-34h-33z m0 0m-500-184h40l28-57c3-6 9-9 15-9h334c6 0 12 3 15 9l28 57h40v34h-500z m406-33h-312l-17 33h346z m0 0m-183 100h34c0 7 2 13 7 18 17 22 17 53 0 75-10 10-10 26 0 36 8 11 13 24 13 38h-34c1-7-2-13-6-18-18-22-18-53 0-75 9-11 9-26 0-36-9-11-14-24-14-38z m0 0m100 0h34c0 7 2 13 7 18 17 22 17 53 0 75-10 10-10 26 0 36 8 11 13 24 13 38h-34c1-7-2-13-6-18-18-22-18-53 0-75 9-11 9-26 0-36-9-11-14-24-14-38z m0 0m-200 0h34c0 7 2 13 7 18 17 22 17 53 0 75-10 10-10 26 0 36 8 11 13 24 13 38h-34c1-7-2-13-6-18-18-22-18-53 0-75 9-11 9-26 0-36-9-11-14-24-14-38z m0 0" horiz-adv-x="1000" />

<glyph glyph-name="062-vitroceramique" unicode="&#xe85b;" d="M971 850h-942c-16 0-29-13-29-29v-942c0-16 13-29 29-29h942c16 0 29 13 29 29v942c0 16-13 29-29 29z m-30-941h-882v882h882z m-646 470c97 0 176 79 176 176s-79 176-176 176-176-79-176-176 79-176 176-176z m0 293c65 0 117-52 117-117s-52-117-117-117-117 52-117 117 52 117 117 117z m0-146c15 0 30 13 29 29 0 16-13 29-29 29-15 0-30-13-29-29 0-16 13-29 29-29z m0-557c97 0 176 79 176 176s-79 176-176 176-176-79-176-176 79-176 176-176z m0 293c65 0 117-52 117-117s-52-117-117-117-117 52-117 117 52 117 117 117z m0-146c15 0 30 13 29 29 0 16-13 29-29 29-15 0-30-13-29-29 0-16 13-29 29-29z m410 263c97 0 176 79 176 176s-79 176-176 176-176-79-176-176 79-176 176-176z m0 293c65 0 117-52 117-117s-52-117-117-117-117 52-117 117 53 117 117 117z m0-146c15 0 30 13 29 29 0 16-12 29-29 29-15 0-30-13-29-29 1-16 13-29 29-29z m0-557c97 0 176 79 176 176s-79 176-176 176-176-79-176-176 79-176 176-176z m0 293c65 0 117-52 117-117s-52-117-117-117-117 52-117 117 53 117 117 117z m0-146c15 0 30 13 29 29 0 16-12 29-29 29-15 0-30-13-29-29 1-16 13-29 29-29z" horiz-adv-x="1000" />

<glyph glyph-name="063-table" unicode="&#xe85c;" d="M1000 734c0 2 0 4-1 5 0 1-1 1-1 2 0 0 0 1-1 2l-66 100c-3 4-9 7-14 7h-834c-5 0-10-3-13-7l-67-100c-1-1-1-2-1-2 0-1-1-1-1-2 0-1-1-3-1-5v-1-100c0-9 8-16 17-16h16v-450c0-9 8-17 17-17h100c9 0 17 8 17 17v383h666v-383c0-9 8-17 17-17h100c9 0 17 8 17 17v450h16c10 0 17 7 17 16v100c0 0 0 1 0 1z m-908 83h816l44-67h-904z m841-634h-66v384c0 9-8 16-17 16h-700c-9 0-17-7-17-16v-384h-66v434h866z m34 467h-934v67h934z m0 0" horiz-adv-x="1000" />

<glyph glyph-name="064-table-1" unicode="&#xe85d;" d="M997 726l-83 117c-4 4-9 7-14 7h-783c-5 0-10-2-13-6l-100-116c-3-3-4-7-4-11v-67c0-9 8-17 17-17h16v-483c0-9 8-17 17-17h67c9 0 16 8 16 17v483h17v-366c0-9 8-17 17-17h50c9 0 16 8 16 17v366h534v-366c0-9 7-17 16-17h50c10 0 17 8 17 17v366h17v-483c0-9 7-17 16-17h67c9 0 17 8 17 17v483h16c10 0 17 8 17 17v67c0 3-1 7-3 9z m-873 91h767l60-84h-898z m-24-650h-33v466h33z m100 116h-17v350h17z m617 0h-17v350h17z m116-116h-33v466h33z m-900 500v33h934v-33z m0 0" horiz-adv-x="1000" />

<glyph glyph-name="065-table-2" unicode="&#xe85e;" d="M984 709h-968c-9 0-16-7-16-15v-94c0-9 7-16 16-16h47v-578c0-8 7-15 15-15h63c8 0 15 7 15 15v578h688v-578c0-8 7-15 15-15h63c9 0 16 7 16 15v578h46c9 0 16 7 16 16v94c0 8-7 15-16 15z m-15-93h-47c-9 0-16-7-16-16v-578h-31v578c0 9-7 16-16 16h-718c-9 0-16-7-16-16v-578h-31v578c0 9-7 16-16 16h-47v62h938v-62z" horiz-adv-x="1000" />

<glyph glyph-name="066-des-casseroles" unicode="&#xe85f;" d="M950 850h-900c-28 0-50-22-50-50v-100h134v33h-100v67c0 10 6 17 16 17h900c10 0 17-7 17-17v-67h-50v-33h83v100c0 28-21 50-50 50z m0 0m-650-117h100v-33h-100z m0 0m300 0h150v-33h-150z m0 0m-383-766c-102 0-183 81-183 183s81 183 183 183c27 0 52-5 77-16l13 30c-3 1-7 3-12 5l-10 41c-3 10-8 20-16 27l-25 20 10 8c8 7 13 17 13 27v275c0 18-15 33-33 33h-34c-18 0-33-15-33-33v-275c0-10 5-20 13-27l10-8-25-20c-8-7-15-17-16-27l-10-41c-112-44-167-170-122-280 33-84 113-137 202-137h18l-3 33c-7-1-12-1-17-1z m-17 783h34v-275l-17-13-17 13z m-20-365c2 3 4 7 5 8l30 25 30-25c4-1 5-5 5-8l5-23c-28 5-56 5-85 0z m0 0m670-37v77l19 18c10 10 15 22 15 35v272c0 18-15 33-34 33h-33c-18 0-33-15-33-33v-270c0-13 5-27 15-35l18-18v-77c-35-3-68-18-95-42l22-25c56 49 140 44 190-11 50-55 43-139-12-189-37-31-87-41-133-26l-12-32c87-30 182 15 213 102 30 86-15 181-101 213-12 5-25 8-39 8z m-33 402h33v-270c0-5-1-8-5-12l-11-11-12 11c-3 4-5 7-5 12z m0 0m-317-517c-73 0-133-60-133-133s60-133 133-133c74 0 134 60 134 133s-60 133-134 133z m0-233c-55 0-100 45-100 100s45 100 100 100c55 0 100-45 100-100s-45-100-100-100z m0 0m50 345v47c0 10-5 20-13 26l-10 9 22 16c11 10 18 24 18 40v267c0 18-15 33-33 33h-67c-18 0-33-15-33-33v-267c0-15 6-30 18-38l22-17-10-8c-9-7-14-17-14-27v-46c-135-30-223-162-195-297 29-135 160-223 295-195 135 28 224 160 195 295-20 98-96 175-195 195z m-76 125c-5 3-7 8-7 13v267h67v-267c0-5-2-10-7-13l-27-22z m10-78l16 13 17-13v-44c-5 0-12 2-17 2-5 0-11 0-16-2z m16-509c-120 0-216 97-216 217s96 217 216 217c120 0 217-97 217-217s-97-217-217-217z m0 0m284 384h100v-34h-100z m0 0m0-67h100v-33h-100z m0 0m0-67h100v-33h-100z m0 0m-567 84v33c-55 0-100-45-100-100s45-100 100-100v33c-37 0-67 30-67 67s30 67 67 67z m0 0" horiz-adv-x="1000" />

<glyph glyph-name="067-ironing-board" unicode="&#xe860;" d="M906 464c0 3 0 6 0 10 1 68 2 163-33 246-3 8-12 11-19 8-8-3-11-12-8-19 26-62 31-131 31-190h-231c2 99 15 224 116 298 22-16 42-36 58-59 4-7 13-9 20-4 7 5 8 14 4 20-20 29-45 54-74 74-5 3-11 3-16 0-62-42-101-102-121-183-14-55-16-110-16-158h-489c-20 0-36-16-36-36 0-2 0-5 1-7-15-2-28-9-38-19-13-13-20-29-20-47 0-37 30-67 67-67h57v-213c0-8 6-15 14-15h180c8 0 15 7 15 15v71l48-48-190-190c-11-11-17-26-17-42s6-30 17-42c12-11 27-17 42-17s31 6 42 17l67 67c6 6 6 15 0 21-6 6-15 6-21 0l-66-67c-12-12-31-12-43 0-6 6-9 13-9 21s3 16 9 22l190 189 42-42-82-82c-5-6-5-15 0-21 3-3 7-4 11-4 4 0 7 1 10 4l82 82 190-190c11-11 27-17 42-17 15 0 30 6 42 17 23 23 23 61 0 84l-190 190 189 190h125c18 0 35 7 47 19 13 13 20 30 20 48 0 34-26 62-59 66z m-259 1c0 3 0 6 0 9-1 5-1 10-1 16h231c0-6 0-11 0-16 0-3 0-6 0-9z m-519 12h489c0-1 0-2 0-3 0-3 0-6 0-9h-489c-3 0-4 1-5 2-1 0-2 2-2 4 0 4 3 6 7 6z m-26-117c-21 0-38 17-38 38 0 10 4 19 11 26 8 7 17 11 27 11h57v-75z m292-29h212l-106-106z m-55-99h-151v203h151z m-151-100v71h151v-71z m565-244c-12-12-31-12-42 0l-264 263c0 0 0 0 0 0s0 1 0 1l-79 79v85l185-185c0 0 0 0 0 0s0 0 0 0l200-200c12-12 12-31 0-43z m-190 274l-42 42 126 127h85z m362 209c-7-7-17-11-27-11h-530v75h530c21 0 38-17 38-37 0-10-4-20-11-27z" horiz-adv-x="1000" />

<glyph glyph-name="068-ironing-board-1" unicode="&#xe861;" d="M973 523c6 30 2 54-13 74-21 30-60 38-81 41v0 6c0 63-51 114-114 114h-70c-13 0-27-7-35-18l-19-25c-5-8-6-17-2-26s13-13 22-13h96c8 0 15-7 15-15s-7-14-15-14h-100c-44 0-81-33-88-76l0 0c-23-6-40-24-45-48h-137v20c0 13-6 25-14 34 8 9 14 21 14 34s-6 26-14 35c8 8 14 20 14 34 0 27-22 49-49 49h-211c-27 0-49-22-49-49 0-14 6-26 14-34-8-9-14-21-14-35s6-25 14-34c-8-9-14-21-14-34v-20h-50c-15 0-28-12-28-28v-35c0-16 13-28 28-28h65c8 0 14 6 14 14s-6 15-14 15h-64v33h555v-33h-423c-8 0-14-7-14-15s6-14 14-14h159l113-135c-1-4-2-14 0-24l-249-297c-5-6-6-15-3-22 4-7 11-12 19-12l53 0h0c11 0 22 5 29 14l87 104c5 6 5 16-2 21-6 5-15 4-20-2l-87-104c-2-2-5-4-7-4 0 0 0 0 0 0l-34 1 228 272c6-8 13-14 22-19l-78-93c-5-7-5-16 2-21 2-2 6-4 9-4 4 0 8 2 11 6l87 104 218-261c7-9 18-14 29-14 0 0 52 0 53 0 8 0 15 5 19 12 3 7 2 16-3 22l-249 297c1 8 2 11 0 24l39 46h89v-69c0-8 7-14 15-14h180c8 0 14 6 14 14v47c0 8-6 14-14 14s-15-6-15-14v-32h-150v205h150v-105c0-8 7-15 15-15s14 7 14 15v43h68c15 0 28 12 28 28v35c0 15-12 28-27 28z m-616 0h-250v20c0 11 9 20 20 20h211c11 0 19-9 19-20z m-19 69h-211c-11 0-20 9-20 19s9 20 20 20h211c11 0 19-9 19-20s-8-19-19-19z m0 68h-211c-11 0-20 9-20 20s9 19 20 19h211c11 0 19-8 19-19s-8-20-19-20z m228-228l-65-77c0 0 0 0-2 0l-64 77z m-120-105l-88 105h38l72-86c-9-4-17-11-22-19z m54-80c-21 0-39 18-39 39s18 39 39 39 39-17 39-39-17-39-39-39z m281-275l-34-1c0 0 0 0 0 0-2 0-5 2-6 4l-210 250c9 5 16 11 23 19z m-197 391l-29-36c-6 8-14 15-23 19l52 62z m111 9h-82v122h82z m180 151h-320c4 12 15 20 28 20h66c8 0 14 7 14 15s-6 14-14 14h-49c6 26 29 45 57 45h100c24 0 44 20 44 44s-20 44-44 44h-86l13 18c2 3 7 6 11 6h70c47 0 85-39 85-85v-6-66h-133c-8 0-15-6-15-14s7-15 15-15h147 11z m15 49h-11v36c17-2 44-9 58-28 10-14 12-33 6-57h-39v35c0 8-6 14-14 14z m81-111h-67v33h67z" horiz-adv-x="1000" />

<glyph glyph-name="069-ironing-board-2" unicode="&#xe862;" d="M954 647h-518v1c0 59-48 108-108 108h-137l8 48c0 1 1 1 1 1h128c8 0 15 7 15 15s-7 14-15 14h-128c-15 0-27-10-30-25l-27-162h-97c-25 0-46-21-46-46s21-46 46-46h259l177-232-307-402c-2-3-3-6-3-9v-32c0-8 7-14 15-14s15 6 15 14v27l298 391 299-391-1-27c0-8 7-14 15-14 0 0 0 0 0 0 8 0 15 6 15 14l0 32c0 3-1 6-3 8l-306 403 176 232h259c25 0 46 20 46 46s-21 46-46 46z m-768 80c1 0 1 0 1 0h141c44 0 79-36 79-79v-1h-234l13 80z m314-380l-158 208h316l-158-208z m454 237h-908c-9 0-17 7-17 17s8 16 17 16h110c0 0 0 0 0 0 0 0 0 0 0 0h798c9 0 17-7 17-16s-8-17-17-17z" horiz-adv-x="1000" />

<glyph glyph-name="070-entretien-menager" unicode="&#xe863;" d="M375-41h-250a16 16 0 0 0-16 16v94c0 88 9 151 51 198a16 16 0 0 0 12 5h180a16 16 0 0 0 15-11c10-36 22-81 24-98 0-1 0-1 0-1v-187a16 16 0 0 0-16-16z m-234 32h218v170c-1 10-8 40-19 80h-161c-28-34-38-82-38-172z m828 203a78 78 0 0 1-78 78h-63v141a16 16 0 0 1 14 8l31 61 92 108a16 16 0 0 1-1 21 259 259 0 0 1-292 52v78a78 78 0 0 1-78 78h-31a78 78 0 0 1-79-78v-344a78 78 0 0 1 47-72v-53h-86c-16 55-34 112-39 127v185a16 16 0 0 1-15 16h-47v31h94a16 16 0 0 1 15 20c-22 72-65 168-187 168h-141a16 16 0 0 1-16-16h-46a16 16 0 0 1-16-15v-63a16 16 0 0 1 16-16h46a16 16 0 0 1 16-15h45a63 63 0 0 0-61-47 16 16 0 0 1 0-31 94 94 0 0 1 91 71l38-49a16 16 0 0 1 12-7v-31h-47a16 16 0 0 1-15-16v-31a16 16 0 0 1 1-7l12-24-12-24a16 16 0 0 1 0-14l12-25-12-24a16 16 0 0 1-1-7v-25l-90-89c0 0 0 0 0 0-59-63-67-159-67-245v-94a94 94 0 0 1 94-94h578a16 16 0 0 1 11 5l5 4 4-4a16 16 0 0 1 11-5h32a16 16 0 0 1 11 5l4 4 5-4a16 16 0 0 1 11-5h31a16 16 0 0 1 11 5l5 4 4-4a16 16 0 0 1 11-5h32a16 16 0 0 1 11 5l4 4 5-4a16 16 0 0 1 11-5h31a16 16 0 0 1 16 16v172a16 16 0 0 1-16 15h0a78 78 0 0 1 16 47z m-860 547h-31v31h31z m823-142l-80-93h-16l49 124a226 226 0 0 0 47-31z m-135 56a228 228 0 0 0 60-12l-55-137h-5z m37-180l-15-31h-75l-16 31z m-37-62v-141h-31v141z m-63 0v-141h-109v53a78 78 0 0 1 47 72v106l18-21 30-61a16 16 0 0 1 14-8z m32 242v-149h-5l-55 137a228 228 0 0 0 60 12z m-89-25l50-124h-17l-79 93a226 226 0 0 0 46 31z m-161 111a47 47 0 0 0 47 47h31a47 47 0 0 0 47-47v-8l-57 22a16 16 0 0 1-12 0l-56-22z m0-42l62 25 63-25v-29l-57 23a16 16 0 0 1-12 0l-56-23z m0-63l62 25 54-21a258 258 0 0 1-24-20l-24 10a16 16 0 0 1-12 0l-56-22z m0-62l62 25 18-7a16 16 0 0 1 2-2l36-42-50 20a16 16 0 0 1-12 0l-56-23z m0-63l62 25 63-25v-28l-57 22a16 16 0 0 1-12 0l-56-22z m0-62l62 25 63-25v-29l-57 23a16 16 0 0 1-12 0l-56-23z m1-62l61 24 62-24a47 47 0 0 0-46-37h-31a47 47 0 0 0-46 37z m77-68v-47h-31v47z m297-78a47 47 0 0 0 44-32h-201a16 16 0 0 1-14-8l-11-23h-242c-2 16-7 38-14 63z m-675 478a16 16 0 0 1-13 6h-62v63h125c73 0 120-39 150-125h-158z m97-88v-31h-32v31z m125-656a63 63 0 0 0-63-63h-250a63 63 0 0 0-62 63v94c0 79 6 168 58 223l93 94a16 16 0 0 1 5 11v27l14 28a16 16 0 0 1 0 14l-12 25 12 24a16 16 0 0 1 0 14l-14 28v12h156v-172a16 16 0 0 1 1-5c25-77 62-201 62-229z m218 31h-125a16 16 0 0 1 0-31h125v-63h-211a93 93 0 0 1 24 63v78h187z m-187 78v63h225l-32-63z m469-172h-10l-11 11a16 16 0 0 1-22 0l-11-11h-18l-11 11a16 16 0 0 1-22 0l-11-11h-19l-11 11a16 16 0 0 1-22 0l-11-11h-18l-11 11a16 16 0 0 1-22 0l-11-11h-9v79h250z m0 235h-157a16 16 0 0 1-14-9l-31-62a16 16 0 0 1 14-23h188v-31h-250v43l56 113h194z m-3-31a47 47 0 0 0-44-32h-116l16 32z" horiz-adv-x="1000" />

<glyph glyph-name="071-outils-de-nettoyage" unicode="&#xe864;" d="M145 48l11-152a16 16 0 0 1 16-15h734a16 16 0 0 1 16 16v156a16 16 0 0 1-3 9l-29 44-31 153a16 16 0 0 1-15 13h-16v31a16 16 0 0 1 16 16v15h31v-15a16 16 0 0 1 31 0v15h16a16 16 0 0 1 16 16v47a16 16 0 0 1-11 15l-47 15a16 16 0 0 1-5 1h-172a16 16 0 0 1-15-15v-63a16 16 0 0 1 15-16v-15a16 16 0 0 1 16-16h15v-31a16 16 0 0 1-15-14l-12-142h-25l-26 50v606a47 47 0 0 1-93 0v-438h-32a16 16 0 0 1-15 16h-63v16a16 16 0 0 1-15 15h-141a16 16 0 0 1-16-15v-16h-140a16 16 0 0 1-16-16h-47a16 16 0 0 1-15-15v-78a266 266 0 0 1 82-193z m168 146h109v-31h-109z m-32-47a16 16 0 0 1 16-16h141a16 16 0 0 1 15 16v109h41l-10-140a16 16 0 0 1-15-16v-47a235 235 0 0 0-78-38v7a16 16 0 0 1-16 16h-78a16 16 0 0 1-16-16v-11a233 233 0 0 0-105 52l-14 193h119z m78-141v-31h-46v31z m-180 15a264 264 0 0 1 102-42v-20a16 16 0 0 1 16-15h78a16 16 0 0 1 16 15v23a266 266 0 0 1 63 24l-42-94h-226z m316 1h32l-24-110h-57z m164 0l25-110h-59v110z m-65-110h-59l24 110h35z m122 0l-25 110h33l49-110z m144 185a16 16 0 0 1 2-6l29-43v-136h-84l-57 129v59a16 16 0 0 1-12 15l11 126h82z m-141 269v31h154l33-11v-20h-78a16 16 0 0 1-15-16v-16h-79v16a16 16 0 0 1-15 16z m47-63h31v-31h-31z m-94-219h47v-31h-219v31h47a16 16 0 0 1 14 9l27 54h43l27-54a16 16 0 0 1 14-9z m-63 704a16 16 0 0 0 16-16v-594h-31v594a16 16 0 0 0 15 16z m-46-485v-137l-26-50h-21l10 144a16 16 0 0 1 5 12v31z m-63 16v-31h-47v31z m-78 31v-125h-109v125z m-266-31h125v-31h-125z m-62-16h31v-31a16 16 0 0 1 5-12l12-161a234 234 0 0 0-48 142z m94 125a47 47 0 1 1 46 47 47 47 0 0 1-46-47z m62 0a16 16 0 1 0-16 16 16 16 0 0 0 16-16z m109 31a63 63 0 1 1-62 63 63 63 0 0 1 62-63z m0 94a31 31 0 1 0-31-31 31 31 0 0 0 31 31z m-222 63a92 92 0 0 0 67-67 16 16 0 0 1 30 0 92 92 0 0 0 67 67 16 16 0 0 1 0 30 92 92 0 0 0-67 67 16 16 0 0 1-30 0 92 92 0 0 0-67-67 16 16 0 0 1 0-30z m82 54a123 123 0 0 1 39-39 123 123 0 0 1-39-38 123 123 0 0 1-39 38 123 123 0 0 1 39 39z" horiz-adv-x="1000" />

<glyph glyph-name="072-shower-1" unicode="&#xe865;" d="M881 850h-762c-8 0-14-7-14-15v-970c0-8 6-15 14-15h762c8 0 15 7 15 15v970c0 8-7 15-15 15z m-747-88h117c24 0 44-20 44-44v-19c-45-7-80-42-87-87h-6c-8 0-14-7-14-15s6-15 14-15h215c8 0 15 7 15 15s-7 15-15 15h-6c-6 45-42 80-87 87v19c0 41-33 73-73 73h-117v30h351v-883h-351v824z m176-92c35 0 65-25 71-58h-143c7 33 36 58 72 58z m556-791h-732v30h732v-30z m0 59h-351v883h351v-883z m-307 544c-8 0-15-7-15-15v-176c0-8 7-14 15-14s14 6 14 14v176c0 8-6 15-14 15z m-118 0c-8 0-14-7-14-15v-176c0-8 6-14 14-14 9 0 15 6 15 14v176c0 8-6 15-15 15z m-131 71c-8 0-15-6-15-14v-30c0-8 7-14 15-14 8 0 14 6 14 14v30c0 8-6 14-14 14z m-59 0c-8 0-15-6-15-14v-30c0-8 7-14 15-14 8 0 15 6 15 14v30c0 8-7 14-15 14z m117 0c-8 0-14-6-14-14v-30c0-8 6-14 14-14 8 0 15 6 15 14v30c0 8-7 14-15 14z m-58-88c-8 0-15-6-15-14v-30c0-8 7-14 15-14 8 0 14 6 14 14v30c0 8-6 14-14 14z m-59 0c-8 0-15-6-15-14v-30c0-8 7-14 15-14 8 0 15 6 15 14v30c0 8-7 14-15 14z m117 0c-8 0-14-6-14-14v-30c0-8 6-14 14-14 8 0 15 6 15 14v30c0 8-7 14-15 14z m-58-88c-8 0-15-6-15-14v-30c0-8 7-14 15-14 8 0 14 6 14 14v30c0 8-6 14-14 14z m-59 0c-8 0-15-6-15-14v-30c0-8 7-14 15-14 8 0 15 6 15 14v30c0 8-7 14-15 14z m117 0c-8 0-14-6-14-14v-30c0-8 6-14 14-14 8 0 15 6 15 14v30c0 8-7 14-15 14z m-58-87c-8 0-15-7-15-15v-29c0-9 7-15 15-15 8 0 14 6 14 15v29c0 8-6 15-14 15z m-59 0c-8 0-15-7-15-15v-29c0-9 7-15 15-15 8 0 15 6 15 15v29c0 8-7 15-15 15z m117 0c-8 0-14-7-14-15v-29c0-9 6-15 14-15 8 0 15 6 15 15v29c0 8-7 15-15 15z m-58-88c-8 0-15-7-15-15v-29c0-8 7-15 15-15 8 0 14 7 14 15v29c0 8-6 15-14 15z m-59 0c-8 0-15-7-15-15v-29c0-8 7-15 15-15 8 0 15 7 15 15v29c0 8-7 15-15 15z m117 0c-8 0-14-7-14-15v-29c0-8 6-15 14-15 8 0 15 7 15 15v29c0 8-7 15-15 15z m-58-88c-8 0-15-7-15-15v-29c0-8 7-15 15-15 8 0 14 7 14 15v29c0 8-6 15-14 15z m-59 0c-8 0-15-7-15-15v-29c0-8 7-15 15-15 8 0 15 7 15 15v29c0 8-7 15-15 15z m117 0c-8 0-14-7-14-15v-29c0-8 6-15 14-15 8 0 15 7 15 15v29c0 8-7 15-15 15z m-58-88c-8 0-15-7-15-15v-29c0-8 7-15 15-15 8 0 14 7 14 15v29c0 8-6 15-14 15z m-59 0c-8 0-15-7-15-15v-29c0-8 7-15 15-15 8 0 15 7 15 15v29c0 8-7 15-15 15z m117 0c-8 0-14-7-14-15v-29c0-8 6-15 14-15 8 0 15 7 15 15v29c0 8-7 15-15 15z" horiz-adv-x="1000" />

</font>
</defs>
</svg>
